<?xml version="1.0" standalone="no"?> 
<!DOCTYPE svg PUBLIC "-//W3C//DTD SVG 1.1//EN" "http://www.w3.org/Graphics/SVG/1.1/DTD/svg11.dtd" >
<svg xmlns="http://www.w3.org/2000/svg">
<defs>
  <font id="icons" horiz-adv-x="128">
    <font-face font-family="icons"
      units-per-em="128" ascent="106"
      descent="22" />
    <missing-glyph horiz-adv-x="0" />
    <glyph glyph-name="arrow-back"
      unicode="&#xF101;"
      horiz-adv-x="128" d=" M23.8558199 67.2639325L87.2431473 67.2639325C95.0067564 67.2639326 102.180627 63.1392038 106.062432 56.4434916C109.944236 49.7477794 109.944236 41.4983217 106.062432 34.8026094C102.180627 28.1068972 95.0067564 23.9821684 87.2431473 23.9821685L60.8536585 23.9821685C57.0661035 23.9821684 53.9956835 20.92443 53.9956835 17.152519C53.9956835 13.380608 57.0661035 10.32287 60.8536585 10.32287L87.2431473 10.32287L87.2431473 10.32287C100.093996 10.032105 112.095615 16.693361 118.606804 27.7306327C125.117993 38.7679046 125.117993 52.4508778 118.606804 63.4881498C112.095615 74.5254217 100.093996 81.186677 87.2431473 80.8959124L23.9458976 80.8959124L37.1287281 94.078743C39.8019102 96.7590193 39.8108691 101.0881199 37.1487576 103.7573551C34.4816137 106.424499 30.1483514 106.4155315 27.4701455 103.7373256L2.58989689 78.857077L2.58984348 78.8312673C-0.08836244 76.1530614 -0.09732995 71.8197992 2.56981399 69.1526552L27.3472979 44.3751713C30.0144419 41.7080273 34.3477041 41.7169948 37.0259101 44.3952008C39.704116 47.0734067 39.7130835 51.4066689 37.0459396 54.0738129L23.8558199 67.2639325z" />
    <glyph glyph-name="arrow-left"
      unicode="&#xF102;"
      horiz-adv-x="128" d=" M128 42C128 38.6 125.2 35.9 121.9 35.9H21L42.8 14C45.2 11.6 45.2 7.7 42.8 5.3C41.6 4.1 40 3.5 38.5 3.5S35.4 4.1 34.2 5.3L1.8 37.7C-0.6 40.1 -0.6 44 1.8 46.4L34.1 78.7C36.5 81.1 40.4 81.1 42.8 78.7C45.2 76.3 45.2 72.4 42.8 70L21 48.1H121.9C125.2 48.1 128 45.4 128 42z" />
    <glyph glyph-name="arrow-updown"
      unicode="&#xF103;"
      horiz-adv-x="128" d=" M64.4 19.7C61.7 22.4 57.3 22.4 54.5 19.7L41.1 6.2V67.2C41.1 71.1 38 74.2 34.1 74.2S27.1 71.1 27.1 67.2V6.2L13.6 19.7C10.9 22.4 6.5 22.4 3.7 19.7C1 17 1 12.6 3.7 9.8L29.1 -15.6C30.5 -17 32.2 -17.6 34 -17.6C35.8 -17.6 37.6 -16.9 38.9 -15.6L64.3 9.8C67.2 12.5 67.2 16.9 64.4 19.7z M124.2 74.2L98.8 99.6C96.1 102.3 91.7 102.3 88.9 99.6L63.6 74.2C60.9 71.5 60.9 67.1 63.6 64.3C65 62.9 66.7 62.3 68.5 62.3C70.3 62.3 72.1 63 73.4 64.3L86.9 77.8V16.8C86.9 12.9 90 9.8 93.9 9.8S100.9 12.9 100.9 16.8V77.8L114.4 64.3C117.1 61.6 121.5 61.6 124.3 64.3C126.9 67.1 126.9 71.5 124.2 74.2z" />
    <glyph glyph-name="arrows-ccw"
      unicode="&#xF104;"
      horiz-adv-x="128" d=" M82.6 78.3L61.6 57.7C60.7 56.8 59.1 57.4 59.1 58.8V72.8C44.2 70.4 32.8 57.5 32.8 41.9C32.8 36.8 34.3 31.4 36.7 26.8C37.8 24.8 37.5 22.4 35.9 20.9L28.8 14.3C26.7 12.4 23.3 12.7 21.8 15.1C16.2 24.2 14.7 33.1 14.7 41.9C14.7 67.5 34.3 88.7 59.2 91.2V104.5C59.2 105.8 60.8 106.5 61.7 105.6L82.7 85C84.5 83.1 84.5 80.1 82.6 78.3zM45.4 5.7L66.4 26.3C67.3 27.2 68.9 26.6 68.9 25.2V11.2C83.8 13.6 95.2 26.5 95.2 42.1C95.2 47.2 93.7 52.6 91.3 57.2C90.2 59.2 90.5 61.6 92.1 63.1L99.2 69.7C101.3 71.6 104.7 71.3 106.2 68.9C111.8 59.8 113.3 50.9 113.3 42.1C113.3 16.5 93.7 -4.7 68.8 -7.2V-20.6C68.8 -21.9 67.2 -22.6 66.3 -21.7L45.3 -1.1C43.5 0.9 43.5 3.9 45.4 5.7z" />
    <glyph glyph-name="bell-slash"
      unicode="&#xF105;"
      horiz-adv-x="144.10666666666665" d=" M143.5733333333333 98C144.1066666666667 97.4666666666667 144.2133333333334 96.9333333333333 144.1066666666667 96.2933333333333C144.1066666666667 95.76 143.8933333333334 95.3333333333333 143.36 94.8L9.8133333333333 -21.2533333333333C9.1733333333333 -21.5733333333333 8.5333333333333 -21.7866666666667 8.1066666666667 -21.7866666666667C7.2533333333333 -21.4666666666667 6.8266666666667 -21.1466666666667 6.6133333333333 -20.8266666666667L0.64 -14.1066666666667C0.1066666666667 -13.5733333333333 0 -13.04 0.1066666666667 -12.4C0.1066666666667 -11.8666666666666 0.32 -11.44 0.8533333333333 -10.9066666666667L14.08 0.6133333333333C13.0133333333333 2.2133333333333 12.5866666666667 3.8133333333333 12.5866666666667 5.52C14.72 7.2266666666667 16.96 9.2533333333333 19.0933333333333 11.8133333333333C20.9066666666667 13.9466666666667 23.04 16.8266666666667 25.3866666666667 20.3466666666667C27.4133333333333 23.8666666666667 29.12 27.6 30.6133333333333 31.5466666666667C31.7866666666667 34.7466666666667 32.96 39.6533333333333 34.1333333333333 46.2666666666667C35.0933333333333 52.1333333333333 35.6266666666667 58.2133333333333 35.6266666666667 64.72C35.6266666666667 71.8666666666667 38.4 78.5866666666667 43.84 84.9866666666667C49.3866666666667 91.1733333333333 56.64 94.9066666666667 65.8133333333333 96.1866666666667C65.4933333333333 96.9333333333333 65.28 97.8933333333333 65.28 99.28C65.28 101.3066666666667 65.92 102.9066666666667 67.3066666666667 104.08C68.6933333333333 105.36 70.1866666666667 106 72.1066666666667 106S75.52 105.36 76.8 103.9733333333333C78.1866666666667 102.8 78.8266666666667 101.2 78.8266666666667 99.28C78.8266666666667 98 78.6133333333333 96.9333333333333 78.2933333333333 96.2933333333333C84.16 95.6533333333333 89.3866666666667 93.7333333333333 94.08 90.5333333333333C98.56 87.5466666666667 102.08 83.7066666666667 104.5333333333333 79.2266666666667L134.2933333333333 105.2533333333333C134.9333333333333 105.5733333333333 135.5733333333333 105.7866666666667 136 105.7866666666667C136.8533333333333 105.4666666666667 137.28 105.1466666666667 137.4933333333334 104.8266666666667L143.5733333333333 98zM110.2933333333333 45.2C112.96 28.3466666666667 120 15.12 131.52 5.4133333333333C131.52 2.96 130.56 0.72 128.7466666666667 -1.0933333333333S124.6933333333333 -3.8666666666666 122.24 -3.8666666666666H90.24C90.24 -8.6666666666666 88.5333333333333 -13.04 85.0133333333333 -16.88C81.3866666666667 -20.2933333333333 77.0133333333333 -22 72.1066666666667 -22S62.72 -20.2933333333333 59.0933333333333 -16.7733333333333C55.5733333333333 -13.2533333333333 53.8666666666667 -8.9866666666666 53.8666666666667 -3.76L110.2933333333333 45.2zM72.1066666666667 -16.24C72.96 -16.24 73.3866666666667 -15.92 73.3866666666667 -15.28C73.3866666666667 -14.4266666666667 72.96 -14 72.1066666666667 -14C69.2266666666667 -14 66.88 -13.04 64.8533333333333 -11.0133333333333S61.8666666666667 -6.64 61.8666666666667 -3.76C61.8666666666667 -2.9066666666667 61.44 -2.48 60.5866666666667 -2.48C59.9466666666667 -2.48 59.6266666666667 -2.9066666666667 59.6266666666667 -3.76C59.6266666666667 -7.28 60.8 -10.16 63.1466666666667 -12.5066666666667C65.6 -14.96 68.5866666666667 -16.24 72.1066666666667 -16.24z" />
    <glyph glyph-name="bell"
      unicode="&#xF106;"
      horiz-adv-x="99.84000000000002" d=" M98.2646153846154 26.0492307692308L90.4861538461538 33.9261538461538V53.9138461538462C90.4861538461538 69.2738461538462 81.1323076923077 83.1569230769231 67.0523076923077 88.9661538461539C66.9538461538462 98.4184615384615 59.3723076923077 106 49.92 106S32.8861538461538 98.4184615384615 32.7876923076923 88.9661538461539C18.7076923076923 83.0584615384615 9.3538461538462 69.2738461538462 9.3538461538462 53.9138461538462V38.2584615384615C9.3538461538462 38.16 9.2553846153846 38.0615384615385 9.1569230769231 37.9630769230769L0.8861538461538 25.5569230769231C0.2953846153846 24.6707692307692 0 23.5876923076923 0 22.5046153846154V6.8492307692308C0 3.8953846153846 2.4615384615385 1.4338461538461 5.4153846153846 1.4338461538461H12.1107692307692C12.4061538461538 1.3353846153846 12.8 1.2369230769231 13.1938461538462 1.2369230769231C13.1938461538462 1.2369230769231 13.1938461538462 1.2369230769231 13.1938461538462 1.2369230769231L28.2584615384615 1.2369230769231C28.2584615384615 0.7446153846154 28.16 0.2523076923077 28.16 -0.24C28.16 -12.2523076923077 37.9076923076923 -22 49.92 -22S71.68 -12.2523076923077 71.68 -0.24C71.68 0.2523076923077 71.5815384615385 0.8430769230769 71.5815384615385 1.3353846153846L94.4246153846154 1.4338461538462C97.3784615384616 1.4338461538462 99.84 3.8953846153846 99.84 6.8492307692308V22.3076923076923C99.84 23.6861538461538 99.3476923076923 25.0646153846154 98.2646153846154 26.0492307692308zM65.6738461538462 -0.24C65.6738461538462 -8.9046153846154 58.5846153846154 -15.9938461538461 49.92 -15.9938461538461S34.1661538461539 -8.9046153846154 34.1661538461539 -0.24C34.1661538461539 0.2523076923077 34.2646153846154 0.7446153846154 34.3630769230769 1.2369230769231L65.3784615384616 1.3353846153846C65.4769230769231 0.8430769230769 65.6738461538462 0.3507692307692 65.6738461538462 -0.24zM93.7353846153846 7.5384615384615L14.1784615384615 7.3415384615385C13.8830769230769 7.44 13.4892307692308 7.5384615384615 13.0953846153846 7.5384615384615H6.1046153846154L6.0061538461538 22.1107692307692L14.08 34.32C14.9661538461538 34.9107692307692 15.4584615384615 35.7969230769231 15.4584615384615 36.88V53.9138461538462C15.4584615384615 67.4030769230769 24.0246153846154 79.5138461538462 36.8246153846154 84.0430769230769C38.0061538461539 84.4369230769231 38.8923076923077 85.6184615384615 38.8923076923077 86.8984615384615V88.8676923076923C38.8923076923077 94.9723076923077 43.8153846153846 99.8953846153846 49.92 99.8953846153846S60.9476923076923 94.9723076923077 60.9476923076923 88.8676923076923V86.8984615384615C60.9476923076923 85.6184615384615 61.7353846153846 84.4369230769231 63.0153846153846 84.0430769230769C75.8153846153846 79.5138461538462 84.3815384615385 67.5015384615385 84.3815384615385 53.9138461538462V32.6461538461538C84.3815384615385 31.8584615384615 84.6769230769231 31.0707692307692 85.2676923076923 30.48L93.7353846153846 22.0123076923077V7.5384615384615z" />
    <glyph glyph-name="camera-slash"
      unicode="&#xF107;"
      horiz-adv-x="128" d=" M78.6 24.9C76 22.4 73 21.2 69.5 21.1L82.6 34.2C82.6 30.6 81.3 27.5 78.6 24.9zM123.5 75.1L117.3 68.9H119.7V54.7H103.1L94.3 45.9C95.9 42.4 96.8 38.6 96.8 34.4C96.8 26.8 94.1 20.3 88.7 15C83.3 9.7 76.8 7.1 69.2 7.1C65.1 7.1 61.3 8 57.8 9.5L41.2 -7.1H121.3V-6.8C124.8 -6.8 126.6 -5 126.6 -1.5V70.6C126.6 73.1 125.4 74.4 123.5 75.1zM125.9 92.9L13.1 -20C11.8 -21.3 9.6 -21.3 8.2 -20L2 -13.8C0.7 -12.5 0.7 -10.3 2 -8.9L11.4 0.5V70.6C11.4 74.1 13.2 75.9 16.7 75.9H40.4V80C40.4 81.3 40.9 82.5 41.9 83.6C42.9 84.7 44.2 85.3 45.7 85.3H92.5C93.6 85.3 94.4 84.8 95.2 84.2L114.8 104C116.1 105.3 118.3 105.3 119.7 104L125.9 97.8C127.3 96.4 127.3 94.2 125.9 92.9zM42.2 31.4L72.4 61.6C71.3 61.7 70.3 61.9 69.2 61.9C61.6 61.9 55.1 59.2 49.8 53.8S42 42 42 34.4C42 33.3 42.1 32.4 42.2 31.4z" />
    <glyph glyph-name="camera"
      unicode="&#xF108;"
      horiz-adv-x="159.5886889460154" d=" M159.5886889460154 85.598971722365V-14.26735218509C159.5886889460154 -19.2030848329049 157.1208226221079 -21.6709511568123 152.1850899742931 -21.6709511568123V-22H7.4035989717224V-21.6709511568123C2.4678663239075 -21.6709511568123 0 -19.2030848329049 0 -14.26735218509V85.598971722365C0 90.3701799485861 2.4678663239075 92.8380462724936 7.4035989717224 92.8380462724936H40.1439588688946V98.5964010282776C40.1439588688946 100.4061696658098 40.8020565552699 102.0514138817481 42.2827763496144 103.5321336760925S45.4087403598972 106 47.3830334190231 106H112.2056555269923C114.1799485861183 106 115.9897172236504 105.1773778920309 117.4704370179949 103.6966580976864S119.6092544987147 100.4061696658098 119.6092544987147 98.7609254498715V92.8380462724936H152.3496143958869C157.120822622108 92.8380462724936 159.5886889460154 90.3701799485861 159.5886889460154 85.598971722365zM118.4575835475578 35.4190231362468C118.4575835475578 45.9485861182519 114.6735218508997 54.9974293059126 107.2699228791774 62.401028277635S90.8174807197944 73.5886889460154 80.2879177377892 73.5886889460154S60.7095115681234 69.8046272493573 53.4704370179949 62.401028277635S42.4473007712082 45.9485861182519 42.4473007712082 35.4190231362468S46.0668380462725 16.0051413881748 53.4704370179949 8.6015424164524S69.7583547557841 -2.4215938303342 80.2879177377892 -2.4215938303342S99.866323907455 1.1979434447301 107.2699228791774 8.6015424164524S118.4575835475578 24.8894601542417 118.4575835475578 35.4190231362468zM79.7943444730077 54.3393316195373C74.694087403599 54.3393316195373 70.2519280205655 52.5295629820051 66.6323907455013 48.745501285347S61.2030848329049 40.5192802056555 61.2030848329049 35.4190231362468S63.012853470437 25.8766066838046 66.6323907455013 22.2570694087404S74.5295629820051 16.827763496144 79.7943444730077 16.827763496144S89.3367609254499 18.8020565552699 93.120822622108 22.2570694087404S98.7146529562982 30.3187660668381 98.7146529562982 35.4190231362468S96.9048843187661 44.9614395886889 93.120822622108 48.745501285347S84.8946015424165 54.3393316195373 79.7943444730077 54.3393316195373zM150.0462724935733 83.2956298200514H120.7609254498715V63.5526992287918H150.0462724935733V83.2956298200514z" />
    <glyph glyph-name="card"
      unicode="&#xF109;"
      horiz-adv-x="183.07508939213346" d=" M164.7675804529201 106C169.8021454112038 106 174.0738974970203 104.1692491060787 177.5828367103695 100.6603098927295S183.0750893921335 92.7270560190703 183.0750893921335 87.6924910607867V-3.8450536352801C183.0750893921335 -8.8796185935638 181.2443384982122 -13.1513706793802 177.7353992848629 -16.6603098927294S169.8021454112038 -22 164.9201430274136 -22H18.3075089392133C13.73063170441 -22 9.4588796185936 -20.1692491060787 5.492252681764 -16.6603098927294C1.8307508939213 -12.9988081048868 0 -8.7270560190703 0 -3.8450536352801V87.6924910607867C0 92.7270560190703 1.8307508939213 96.9988081048868 5.3396901072706 100.507747318236C9.4588796185936 104.1692491060787 13.73063170441 106 18.3075089392133 106H164.7675804529201zM164.7675804529201 78.53873659118V87.6924910607867H18.3075089392133V78.53873659118H164.7675804529201zM164.7675804529201 -3.8450536352801V51.2300357568534H18.3075089392133V-3.8450536352801H164.7675804529201zM47.5995232419547 15.2252681764005H36.4624553039333V20.8700834326579H42.2598331346841V26.2097735399285H47.5995232419547V31.5494636471991H58.7365911799762V26.2097735399285H52.9392133492253V20.870083432658H47.5995232419547V15.2252681764005zM36.4624553039333 31.5494636471991H42.2598331346841V26.2097735399285H36.4624553039333V31.5494636471991zM64.0762812872467 15.2252681764005H52.9392133492253V20.8700834326579H64.0762812872467V15.2252681764005zM69.7210965435042 26.2097735399285V20.8700834326579H64.0762812872467V31.5494636471991H75.2133492252682V26.2097735399285H69.7210965435042zM69.7210965435042 20.8700834326579H75.0607866507747V26.2097735399285H80.4004767580453V31.5494636471991H91.5375446960667V26.2097735399285H86.1978545887962V20.870083432658H80.4004767580453V15.0727056019071H69.7210965435042V20.8700834326579zM91.5375446960667 15.2252681764005H86.1978545887962V20.8700834326579H91.5375446960667V15.2252681764005z" />
    <glyph glyph-name="check-circle"
      unicode="&#xF10A;"
      horiz-adv-x="128" d=" M64 106C28.7 106 0 77.3 0 42C0 6.7 28.7 -22 64 -22C99.3 -22 128 6.7 128 42C128 77.3 99.3 106 64 106zM105.5 58.4L57.5 10.7C56.8 9.6 55.6 9.1 54 9.1C52.7 9.1 51.6 9.6 50.7 10.7L22.5 38.5C21.6 39.8 21.1 41 21.1 42C21.1 43.1 21.6 44.3 22.5 45.5L30.4 53.4C31.3 54.3 32.5 54.8 33.9 54.8C35.5 54.8 36.7 54.3 37.4 53.4L53.8 37L90.3 73.3C91.2 74.4 92.4 74.9 93.8 74.9C95.1 74.9 96.3 74.4 97.3 73.3L105.2 65.4C106.1 64.1 106.6 62.9 106.6 61.9C106.8 60.8 106.4 59.6 105.5 58.4z" />
    <glyph glyph-name="check-square"
      unicode="&#xF10B;"
      horiz-adv-x="128" d=" M128 82.0701071080818V2.0545277507303C128 -4.5511197663096 125.6319376825706 -10.159688412853 121.0204479065239 -14.8958130477118S110.6757546251217 -21.8753651411879 104.0701071080818 -21.8753651411879H23.9298928919182C17.3242453748783 -21.8753651411879 11.715676728335 -19.5073028237585 6.9795520934761 -14.8958130477118S0 -4.6757546251217 0 2.0545277507303V82.0701071080818C0 88.6757546251217 2.3680623174294 94.2843232716651 6.9795520934761 99.0204479065239S17.3242453748783 106 23.9298928919182 106H103.9454722492697C110.6757546251217 106 116.2843232716651 103.6319376825706 120.8958130477118 99.0204479065239S128 88.6757546251217 128 82.0701071080818zM56.9581304771178 8.4109055501461L108.3076923076923 59.5111976630964C109.3047711781889 60.8821811100292 109.8033106134372 62.12852969815 109.8033106134372 63.2502434274586S109.3047711781889 65.7429406037001 108.3076923076923 66.9892891918208L99.9571567672834 75.589094449854C98.7108081791626 76.8354430379747 97.4644595910419 77.333982473223 96.0934761441091 77.333982473223C94.5978578383642 77.333982473223 93.2268743914314 76.7108081791626 92.3544303797469 75.589094449854L53.2190847127556 36.8276533592989L35.6455696202532 54.2765335929893C34.8977604673807 55.2736124634859 33.65141187926 55.7721518987342 31.7818889970789 55.7721518987342C30.286270691334 55.7721518987342 28.9152872444012 55.2736124634859 28.0428432327167 54.2765335929893L19.5676728334956 45.8013631937683C18.570593962999 44.4303797468354 18.0720545277507 43.1840311587147 18.0720545277507 42.062317429406S18.570593962999 39.5696202531646 19.5676728334956 38.3232716650438L49.6046738072055 8.5355404089581C50.6017526777021 7.4138266796495 51.7234664070107 6.7906523855891 53.0944498539435 6.7906523855891C54.9639727361246 6.666017526777 56.2103213242454 7.2891918208374 56.9581304771178 8.4109055501461z" />
    <glyph glyph-name="check"
      unicode="&#xF10C;"
      horiz-adv-x="138.66666666666666" d=" M137.9555555555556 90.64C138.3822222222222 89.7866666666667 138.6666666666667 89.0755555555556 138.6666666666667 88.6488888888889S138.3822222222222 87.5111111111111 137.9555555555556 86.6577777777778L54.8977777777778 -20.0088888888889C53.6177777777778 -21.2888888888889 52.6222222222222 -22 52.0533333333333 -22C50.9155555555556 -22 49.7777777777778 -21.4311111111111 48.64 -20.2933333333333L1.7066666666667 24.9333333333333L0.7111111111111 26.0711111111111C0.2844444444444 26.9244444444445 0 27.4933333333333 0 28.0622222222222C0 28.3466666666667 0.2844444444444 28.7733333333333 0.7111111111111 29.7688888888889L1.4222222222222 30.48C7.68 37.1644444444444 12.5155555555556 42.2844444444444 16.0711111111111 45.84C17.3511111111111 46.9777777777778 18.2044444444444 47.6888888888889 18.6311111111111 47.6888888888889C19.4844444444444 47.6888888888889 20.6222222222222 46.9777777777778 21.9022222222222 45.6977777777778L48.64 19.6711111111111L115.3422222222222 105.2888888888889C115.7688888888889 105.7155555555556 116.48 106 117.3333333333333 106C118.0444444444445 106 118.7555555555556 105.7155555555556 119.6088888888889 105.2888888888889L137.9555555555556 90.64z" />
    <glyph glyph-name="chevron-down"
      unicode="&#xF10D;"
      horiz-adv-x="224.31893687707642" d=" M112.0531561461794 20.7375415282392L198.8039867109635 103.8737541528239C201.3554817275747 106.4252491694352 204.1196013289037 106.4252491694352 206.8837209302326 103.8737541528239L222.405315614618 88.9900332225914C224.9568106312293 86.4385382059801 224.9568106312293 83.6744186046512 222.405315614618 80.9102990033223L116.093023255814 -20.5116279069768C115.0299003322259 -21.5747508305648 113.7541528239203 -22 112.0531561461794 -22S109.0764119601329 -21.5747508305648 108.2259136212625 -20.5116279069768L1.9136212624585 81.1229235880399C-0.6378737541528 83.6744186046512 -0.6378737541528 86.4385382059801 1.9136212624585 89.202657807309L17.4352159468439 104.0863787375415C19.9867109634552 106.6378737541528 22.7508305647841 106.6378737541528 25.514950166113 104.0863787375415L112.0531561461794 20.7375415282392z" />
    <glyph glyph-name="chevron-left"
      unicode="&#xF10E;"
      horiz-adv-x="73.17758784425452" d=" M24.5546058879392 42.0607787274454L72.0835707502374 -7.5346628679962C73.5422602089269 -8.9933523266857 73.5422602089269 -10.5735992402659 72.0835707502374 -12.1538461538462L63.5745489078822 -21.0275403608737C62.1158594491928 -22.4862298195632 60.5356125356125 -22.4862298195632 58.9553656220323 -21.0275403608737L0.8509021842355 39.8727445394112C0.2431149097816 40.3589743589744 0 41.2098765432099 0 42.0607787274454S0.2431149097816 43.7625830959164 0.8509021842355 44.3703703703704L58.9553656220323 105.0275403608737C60.292497625831 106.3646723646724 61.7511870845204 106.2431149097816 63.5745489078823 104.7844254510921L72.0835707502374 96.275403608737C73.5422602089269 94.8167141500475 73.5422602089269 93.2364672364673 72.0835707502374 91.656220322887L24.5546058879392 42.0607787274454z" />
    <glyph glyph-name="chevron-right"
      unicode="&#xF10F;"
      horiz-adv-x="73.17758784425452" d=" M48.7445394112061 42.0607787274454L1.0940170940171 91.656220322887C-0.3646723646724 93.1149097815764 -0.3646723646724 94.6951566951567 1.0940170940171 96.2754036087369L9.6030389363723 104.7844254510921C11.3048433048433 106.2431149097816 12.8850902184236 106.3646723646724 14.2222222222222 105.0275403608737L72.326685660019 44.3703703703704C72.9344729344729 43.7625830959164 73.1775878442545 43.0332383665717 73.1775878442545 42.0607787274454S72.9344729344729 40.3589743589744 72.326685660019 39.8727445394112L14.2222222222222 -20.7844254510921C12.7635327635328 -22.2431149097816 11.1832858499525 -22.2431149097816 9.6030389363723 -20.7844254510921L1.0940170940171 -11.9107312440646C-0.3646723646724 -10.4520417853751 -0.3646723646724 -8.8717948717949 1.0940170940171 -7.2915479582146L48.7445394112061 42.0607787274454z" />
    <glyph glyph-name="chevron-up"
      unicode="&#xF110;"
      horiz-adv-x="224.31893687707642" d=" M112.0531561461794 63.0498338870432L25.514950166113 -20.0863787375415C22.9634551495017 -22.6378737541528 20.1993355481728 -22.6378737541528 17.4352159468439 -20.0863787375415L1.9136212624585 -5.202657807309C-0.6378737541528 -2.6511627906977 -0.6378737541528 0.1129568106312 1.9136212624585 2.8770764119601L108.0132890365449 104.5116279069768C109.0764119601329 105.5747508305648 110.5647840531562 106 112.0531561461794 106S115.0299003322259 105.5747508305648 116.093023255814 104.5116279069767L222.1926910299003 2.8770764119601C224.7441860465116 0.3255813953488 224.7441860465116 -2.4385382059801 222.1926910299003 -5.202657807309L206.671096345515 -20.0863787375415C204.1196013289037 -22.6378737541528 201.3554817275747 -22.6378737541528 198.5913621262458 -20.0863787375415L112.0531561461794 63.0498338870432z" />
    <glyph glyph-name="circle-o-notch"
      unicode="&#xF111;"
      horiz-adv-x="128.75104777870914" d=" M128.7510477787091 42.3755238893546C128.7510477787091 33.7921207041073 127.0343671416597 25.5305951383068 123.7082984073764 17.4836546521375C120.1676445934619 9.4367141659681 115.5540653813915 2.5699916177703 109.8675607711651 -3.116512992456S97.314333612741 -13.4165968147527 89.2673931265717 -16.9572506286672C81.2204526404024 -20.2833193629505 72.9589270746019 -22 64.3755238893546 -22S47.5305951383068 -20.2833193629505 39.4836546521375 -16.9572506286672C31.4367141659682 -13.4165968147527 24.5699916177703 -8.8030176026823 18.883487007544 -3.116512992456S8.5834031852473 9.4367141659681 5.0427493713328 17.4836546521375C1.7166806370495 25.5305951383068 0 33.7921207041073 0 42.3755238893546C0 52.8901927912825 2.4677284157586 62.8683989941324 7.2958927074602 72.0955574182733C12.0167644593462 81.3227158424141 18.5616093880972 88.940486169321 27.1450125733445 94.9488683989941C35.5138306789606 101.1718357082984 44.848281642917 104.8197820620285 55.0410729253982 106V87.4383906119028C44.3118189438391 85.3998323554066 35.6211232187762 80.1424979044426 28.861693210394 71.5590947191953C21.780385582565 62.975691533948 18.3470243084661 53.3193629505448 18.3470243084661 42.3755238893546C18.3470243084661 36.3671416596815 19.6345347862531 30.3587594300084 22.1022632020117 24.5649622799665C24.2481139983236 18.8784576697402 27.5741827326069 14.0502933780385 31.8658843252305 9.9731768650461C35.943000838223 5.5741827326069 40.7711651299246 2.3554065381391 46.5649622799665 0.1022632020117C52.466051969824 -2.3654652137469 58.3671416596815 -3.6529756915339 64.3755238893546 -3.6529756915339S76.3922883487008 -2.3654652137469 82.1860854987427 0.1022632020117C87.872590108969 2.2481139983235 92.7007544006706 5.5741827326069 96.777870913663 9.8658843252305C101.1768650461023 13.943000838223 104.39564124057 18.7711651299246 106.5414920368818 24.4576697401509C109.0092204526404 30.3587594300084 110.2967309304275 36.2598491198659 110.2967309304275 42.268231349539C110.2967309304275 53.2120704107293 106.756077116513 62.8683989941325 99.7820620284996 71.4518021793797C93.129924559933 80.035205364627 84.3319362950545 85.292539815591 73.6026823134954 87.3310980720872V106C83.7954735959765 104.8197820620285 93.129924559933 101.1718357082984 101.498742665549 94.9488683989941C110.0821458507963 88.940486169321 116.6269907795474 81.3227158424141 121.3478625314334 72.0955574182733C126.2833193629506 62.8683989941324 128.7510477787091 52.8901927912825 128.7510477787091 42.3755238893546z" />
    <glyph glyph-name="circle-o"
      unicode="&#xF112;"
      horiz-adv-x="128" d=" M128 42.062317429406C128 29.9727361246349 125.1333982473223 19.2541382667965 119.524829600779 9.9065238558909C113.6669912366115 0.1850048685492 105.8149951314508 -7.6669912366115 96.0934761441091 -13.524829600779C86.7458617332035 -19.1333982473223 76.0272638753651 -22 63.937682570594 -22S41.1295034079844 -19.1333982473223 31.7818889970789 -13.524829600779C22.0603700097371 -7.6669912366115 14.3330087633885 0.1850048685492 8.475170399221 9.9065238558909C2.8666017526777 19.2541382667965 0 29.9727361246349 0 42.062317429406S2.8666017526777 64.8704965920156 8.475170399221 74.2181110029211C14.3330087633885 83.9396299902629 22.0603700097371 91.7916260954236 31.9065238558909 97.6494644595911C41.1295034079844 103.1333982473223 51.8481012658228 106 63.937682570594 106S86.7458617332035 103.1333982473223 96.0934761441091 97.524829600779C105.8149951314508 91.6669912366115 113.6669912366115 83.9396299902629 119.524829600779 74.0934761441091C125.1333982473223 64.8704965920156 128 54.1518987341772 128 42.062317429406zM63.937682570594 87.3047711781889C55.9610516066212 87.3047711781889 48.3583252190847 85.3106134371957 41.1295034079844 81.4469328140214C34.1499513145083 77.333982473223 28.666017526777 71.8500486854917 24.5530671859786 64.8704965920156C20.6893865628043 57.6416747809153 18.6952288218111 50.0389483933788 18.6952288218111 42.062317429406S20.6893865628043 26.4829600778968 24.5530671859786 19.2541382667965C28.666017526777 12.2745861733204 34.1499513145083 6.666017526777 41.1295034079844 2.5530671859786C48.3583252190847 -1.3106134371957 55.9610516066212 -3.3047711781889 63.937682570594 -3.3047711781889S79.5170399221032 -1.3106134371957 86.7458617332035 2.5530671859786C93.7254138266796 6.666017526777 99.333982473223 12.2745861733204 103.4469328140214 19.2541382667965C107.3106134371957 26.4829600778968 109.3047711781889 34.0856864654333 109.3047711781889 42.062317429406S107.3106134371957 57.6416747809153 103.4469328140214 64.8704965920156C99.333982473223 71.8500486854917 93.7254138266796 77.333982473223 86.7458617332035 81.4469328140214C79.5170399221032 85.3106134371957 71.9143135345667 87.3047711781889 63.937682570594 87.3047711781889z" />
    <glyph glyph-name="copy"
      unicode="&#xF113;"
      horiz-adv-x="128" d=" M96.2 -11.3V-17.3C96.2 -19.9 94.1 -22 91.5 -22H20.9C18.3 -22 16.2 -19.9 16.2 -17.3V85.6C16.2 88.2 18.3 90.3 20.9 90.3H26.9V-1.7C26.9 -7 31.2 -11.3 36.5 -11.3H96.2zM111.9 78.4V-1.3C111.9 -4.1 109.6 -6.4 106.8 -6.4H36.9C34.1 -6.4 31.8 -4.1 31.8 -1.3V100.9C31.8 103.7 34.1 106 36.9 106H84.3C85.7 106 87.1 105.4 88 104.4L110.3 82.1C111.3 81.2 111.9 79.8 111.9 78.4zM101.1 72.4C101.1 73.2 100.5 73.8 99.7 73.8H80.9C80.2 73.8 79.7 74.4 79.7 75V93.9C79.7 94.7 79.1 95.3 78.3 95.3H76.1C75.3 95.3 74.7 94.7 74.7 93.9V72.8V70.2C74.7 69.4 75.3 68.8 76.1 68.8H78.7H99.8C100.6 68.8 101.2 69.4 101.2 70.2V72.4z" />
    <glyph glyph-name="down-open"
      unicode="&#xF114;"
      horiz-adv-x="213.33333333333331" d=" M200.5333333333333 106L213.3333333333333 92.0622222222222L106.6666666666667 -22L0 92.0622222222222L12.8 106L106.6666666666667 5.8755555555556L200.5333333333333 106z" />
    <glyph glyph-name="filter"
      unicode="&#xF115;"
      horiz-adv-x="143.0167597765363" d=" M37.6610800744879 31.8696461824953H105.3556797020484V32.9422718808194L143.0167597765363 103.7355679702048C143.0167597765363 105.0465549348231 142.0633147113594 106 140.7523277467412 106H2.2644320297952C0.9534450651769 106 0 105.0465549348231 0 103.7355679702048L37.6610800744879 32.9422718808194V31.8696461824953z M37.6610800744879 19.1173184357542V-19.6163873370577C37.6610800744879 -20.8081936685288 38.6145251396648 -21.8808193668529 39.9255121042831 -21.8808193668529H103.2104283054004C104.4022346368715 -21.8808193668529 105.4748603351955 -20.927374301676 105.4748603351955 -19.6163873370577V19.1173184357542H37.6610800744879z" />
    <glyph glyph-name="heart"
      unicode="&#xF116;"
      horiz-adv-x="128" d=" M108.1 97.1C89.6 105.6 75 97.5 68.2 92.2C65.7 90.3 62.4 90.3 59.9 92.2C53 97.5 38.4 105.6 19.9 97.1C-5.9 85.3 -5.9 51.9 15.6 28.3C31.8 10.5 51.1 -7.4 59.6 -15.1C62.1 -17.4 65.9 -17.4 68.4 -15.1C76.9 -7.4 96.2 10.4 112.4 28.3C133.9 51.9 133.9 85.3 108.1 97.1z" />
    <glyph glyph-name="help-circled"
      unicode="&#xF117;"
      horiz-adv-x="128" d=" M18.7733333333333 87.2266666666667C31.2451282051282 99.6984615384616 46.3425641025641 106 64.065641025641 106S96.7548717948718 99.6984615384616 109.3579487179487 87.2266666666667S128.1312820512821 59.6574358974359 128.1312820512821 41.934358974359S121.6984615384615 9.2451282051282 109.2266666666667 -3.2266666666667S81.6574358974359 -22 63.934358974359 -22S31.2451282051282 -15.6984615384615 18.7733333333333 -3.2266666666667S0 24.3425641025641 0 41.934358974359S6.3015384615385 74.7548717948718 18.7733333333333 87.2266666666667zM22.4492307692308 0.4492307692308C34.0020512820513 -11.1035897435897 47.7866666666667 -16.7487179487179 63.934358974359 -16.7487179487179S93.9979487179487 -10.9723076923077 105.4194871794872 0.4492307692308S122.6174358974359 25.7866666666667 122.6174358974359 41.934358974359S116.9723076923077 71.9979487179487 105.5507692307692 83.5507692307692S80.2133333333333 100.748717948718 64.065641025641 100.748717948718S34.0020512820513 94.9723076923077 22.4492307692308 83.5507692307692S5.2512820512821 58.2133333333333 5.2512820512821 41.934358974359S11.0276923076923 12.0020512820513 22.4492307692308 0.4492307692308zM65.2471794871795 75.8051282051282C70.3671794871795 75.8051282051282 74.6994871794872 74.2297435897436 78.3753846153846 71.2102564102564S83.7579487179487 63.9897435897436 83.7579487179487 58.8697435897436C83.7579487179487 53.4871794871795 81.1323076923077 48.3671794871795 75.7497435897436 43.5097435897436C72.4676923076923 40.2276923076923 70.4984615384615 37.7333333333333 69.8420512820513 36.1579487179487S68.7917948717949 31.5630769230769 68.6605128205128 27.2307692307692H62.7528205128205C63.0153846153846 34.9764102564103 66.0348717948718 41.5405128205128 71.9425641025641 46.9230769230769C75.8810256410257 50.4676923076923 77.8502564102564 54.2748717948718 77.8502564102564 58.6071794871795C77.8502564102564 62.2830769230769 76.668717948718 65.3025641025641 74.174358974359 67.534358974359S68.6605128205128 70.9476923076923 64.9846153846154 70.9476923076923C59.9958974358974 70.9476923076923 56.32 69.7661538461539 53.694358974359 67.2717948717949S49.8871794871795 61.2328205128205 50.1497435897436 56.7692307692308H44.3733333333333C44.3733333333333 69.5035897435897 51.3312820512821 75.8051282051282 65.2471794871795 75.8051282051282zM61.5712820512821 17.1220512820513C62.6215384615385 18.0410256410256 63.8030769230769 18.5661538461539 65.2471794871795 18.5661538461539S67.8728205128205 18.0410256410256 68.9230769230769 16.9907692307692S70.4984615384615 14.7589743589744 70.4984615384615 13.3148717948718S69.9733333333333 10.6892307692308 68.9230769230769 9.6389743589744S66.6912820512821 8.1948717948718 65.2471794871795 8.1948717948718S62.6215384615385 8.72 61.571282051282 9.7702564102564S59.9958974358974 12.0020512820513 59.9958974358974 13.4461538461538S60.5210256410257 16.0717948717949 61.5712820512821 17.1220512820513z" />
    <glyph glyph-name="info-circled-outline"
      unicode="&#xF118;"
      horiz-adv-x="128" d=" M18.7733333333333 87.2266666666667C31.2451282051282 99.6984615384616 46.3425641025641 106 64.065641025641 106S96.7548717948718 99.6984615384616 109.3579487179487 87.2266666666667S128.1312820512821 59.6574358974359 128.1312820512821 41.934358974359S121.6984615384615 9.2451282051282 109.2266666666667 -3.2266666666667S81.6574358974359 -22 63.934358974359 -22S31.2451282051282 -15.6984615384615 18.7733333333333 -3.2266666666667S0 24.3425641025641 0 41.934358974359S6.3015384615385 74.7548717948718 18.7733333333333 87.2266666666667zM22.4492307692308 0.4492307692308C34.0020512820513 -11.1035897435897 47.7866666666667 -16.7487179487179 63.934358974359 -16.7487179487179S93.9979487179487 -10.9723076923077 105.4194871794872 0.4492307692308S122.6174358974359 25.7866666666667 122.6174358974359 41.934358974359S116.9723076923077 71.9979487179487 105.5507692307692 83.5507692307692S80.2133333333333 100.748717948718 64.065641025641 100.748717948718S34.0020512820513 94.9723076923077 22.4492307692308 83.5507692307692S5.2512820512821 58.2133333333333 5.2512820512821 41.934358974359S11.0276923076923 12.0020512820513 22.4492307692308 0.4492307692308zM68.9230769230769 14.8902564102564H73.9117948717949V12.3958974358974H54.2194871794872V14.8902564102564H59.0769230769231V51.9117948717949H54.0882051282051V54.2748717948718H68.7917948717949V14.8902564102564zM62.7528205128205 61.6266666666667C58.6830769230769 61.6266666666667 56.5825641025641 63.7271794871795 56.5825641025641 67.7969230769231S58.6830769230769 73.9671794871795 62.7528205128205 73.9671794871795S68.9230769230769 71.8666666666667 68.9230769230769 67.7969230769231S66.8225641025641 61.6266666666667 62.7528205128205 61.6266666666667z" />
    <glyph glyph-name="information"
      unicode="&#xF119;"
      horiz-adv-x="128" d=" M63.1898734177215 106C80.7811934900543 106 95.8264014466546 99.9819168173599 108.4412296564195 87.8300180831826C120.9403254972875 75.6781193490054 127.4213381555154 60.748643761302 128 43.0415913200723C128 25.1030741410488 121.866184448463 10.0578661844485 109.5985533453888 -2.2097649186257C97.4466546112116 -14.8245931283906 82.5171790235082 -21.4213381555154 64.8101265822785 -22C46.871609403255 -22 31.8264014466546 -15.866184448463 19.5587703435805 -3.5985533453888C6.9439421338156 8.6690777576854 0.3471971066908 23.5985533453888 0 41.1898734177215C-0.3471971066908 58.8969258589512 5.6708860759494 74.0578661844485 18.1699819168174 86.4412296564195C30.6690777576854 99.2875226039783 45.7142857142857 105.7685352622061 63.1898734177215 106zM65.3887884267631 5.8915009041591C70.5967450271248 8.4376130198915 75.4575045207957 12.0253164556962 80.0867992766727 16.7703435804702L77.5406871609403 20.0108499095841C73.2585895117541 16.7703435804702 69.9023508137432 15.1500904159132 67.5877034358047 15.1500904159132C66.5461121157324 15.1500904159132 66.3146473779385 16.8860759493671 67.0090415913201 20.3580470162749L73.0271247739602 42.5786618444846C75.3417721518987 51.4900542495479 74.4159132007233 55.8878842676311 70.0180831826402 55.8878842676311C67.124773960217 55.8878842676311 62.9584086799277 54.499095840868 57.5189873417722 51.8372513562387C51.3851717902351 48.7124773960217 46.0614828209765 45.2405063291139 41.5479204339964 41.4213381555154L43.746835443038 37.9493670886076C48.8390596745027 41.0741410488246 52.1952983725136 42.5786618444846 54.0470162748644 42.5786618444846C55.0886075949367 42.5786618444846 55.0886075949367 41.0741410488246 54.0470162748644 37.9493670886076L49.0705244122966 16.7703435804702C46.7558770343581 7.1645569620253 48.2603978300181 2.4195298372514 53.6998191681736 2.4195298372514C56.8245931283906 2.4195298372514 60.6437613019892 3.5768535262206 65.3887884267631 5.8915009041591zM70.5967450271248 84.8209764918626C66.6618444846293 84.8209764918626 63.5370705244123 83.6636528028933 61.3381555153707 81.3490054249548C59.1392405063291 79.1500904159132 58.0976491862568 76.8354430379747 58.0976491862568 74.5207956600362C58.0976491862568 71.8589511754069 58.7920433996383 69.7757685352622 60.2965641952984 68.2712477396022C62.1482820976492 66.8824593128391 64.3471971066908 66.0723327305606 67.124773960217 66.0723327305606C70.7124773960217 66.0723327305606 73.4900542495479 67.1139240506329 75.5732368896926 69.0813743218807C77.5406871609403 71.2802893309223 78.6980108499096 73.8264014466546 78.6980108499096 76.7197106690778C78.6980108499096 82.1591320072333 75.9204339963834 84.8209764918626 70.5967450271248 84.8209764918626z" />
    <glyph glyph-name="interview"
      unicode="&#xF11A;"
      horiz-adv-x="196.92307692307696" d=" M193.148717948718 98.9435897435897C195.6102564102564 96.1538461538462 196.923076923077 93.0358974358974 196.923076923077 89.425641025641V21.8153846153846C196.923076923077 18.0410256410256 195.774358974359 14.7589743589744 193.3128205128205 12.1333333333333S187.8974358974359 8.3589743589744 184.2871794871795 8.3589743589744C182.4820512820513 8.3589743589744 181.0051282051282 8.5230769230769 180.0205128205128 8.6871794871795L171.1589743589744 11.3128205128205C170.8307692307693 11.3128205128205 170.8307692307693 11.3128205128205 170.8307692307693 11.4769230769231S170.6666666666667 11.6410256410256 170.5025641025641 11.6410256410256L139.6512820512821 21.8153846153846V18.6974358974359C139.6512820512821 14.9230769230769 138.3384615384616 11.6410256410256 135.8769230769231 9.0153846153846S130.1333333333334 5.2410256410256 126.523076923077 5.2410256410256H119.3025641025641V-9.0358974358975C119.3025641025641 -12.6461538461539 118.1538461538462 -15.7641025641026 115.6923076923077 -18.2256410256411S110.1128205128205 -22 106.5025641025641 -22H33.4769230769231C29.8666666666667 -22 26.9128205128205 -20.6871794871795 24.4512820512821 -18.225641025641S20.8410256410256 -12.6461538461539 20.8410256410256 -9.0358974358975V5.2410256410256H12.6358974358974C9.3538461538462 5.2410256410256 6.4 6.5538461538462 3.774358974359 9.0153846153846S0 14.9230769230769 0 18.6974358974359V92.5435897435897C0 96.3179487179487 1.3128205128205 99.6 3.774358974359 102.225641025641S9.3538461538462 106 12.6358974358974 106H126.523076923077C130.1333333333334 106 133.2512820512821 104.6871794871795 135.7128205128206 102.225641025641S139.4871794871795 96.4820512820513 139.4871794871795 92.5435897435898V89.425641025641L170.3384615384616 99.1076923076923C170.6666666666667 99.4358974358974 170.8307692307693 99.4358974358974 171.1589743589744 99.4358974358974L180.0205128205129 102.0615384615385C181.0051282051283 102.5538461538462 182.4820512820514 102.8820512820513 184.2871794871796 102.8820512820513C187.5692307692308 102.8820512820513 190.5230769230769 101.5692307692308 193.148717948718 98.9435897435897zM130.7897435897436 92.5435897435898C130.7897435897436 95.6615384615385 129.3128205128205 97.1384615384615 126.523076923077 97.1384615384615H12.6358974358974C9.8461538461538 97.1384615384615 8.3692307692308 95.6615384615385 8.3692307692308 92.5435897435898V18.6974358974359C8.3692307692308 15.5794871794872 9.8461538461538 14.1025641025641 12.6358974358974 14.1025641025641H126.523076923077C129.3128205128205 14.1025641025641 130.7897435897436 15.5794871794872 130.7897435897436 18.6974358974359V92.5435897435898zM51.5282051282051 54.4717948717949C51.5282051282051 59.3948717948718 49.7230769230769 63.4974358974359 46.2769230769231 66.7794871794872S38.7282051282051 71.7025641025641 34.1333333333333 71.7025641025641S25.6 70.0615384615385 22.1538461538462 66.7794871794872S17.2307692307692 59.3948717948718 17.2307692307692 54.4717948717949C17.2307692307692 49.8769230769231 18.8717948717949 45.9384615384615 22.1538461538462 42.4923076923077S29.5384615384615 37.5692307692308 34.1333333333333 37.5692307692308S42.8307692307692 39.2102564102564 46.2769230769231 42.4923076923077S51.5282051282051 49.8769230769231 51.5282051282051 54.4717948717949zM43.4871794871795 54.1435897435897C43.4871794871795 51.5179487179487 42.6666666666667 49.3846153846154 40.8615384615385 47.5794871794872S36.9230769230769 44.9538461538461 34.2974358974359 44.9538461538461S29.5384615384615 45.774358974359 27.7333333333333 47.5794871794872S25.1076923076923 51.5179487179487 25.1076923076923 54.1435897435897S25.9282051282051 58.9025641025641 27.7333333333333 60.8717948717949S31.6717948717949 63.825641025641 34.2974358974359 63.825641025641S39.0564102564103 62.8410256410256 40.8615384615385 60.8717948717949S43.4871794871795 56.6051282051282 43.4871794871795 54.1435897435897zM110.7692307692308 5.2410256410256H29.2102564102564V-9.0358974358975C29.2102564102564 -11.825641025641 30.6871794871795 -13.3025641025641 33.4769230769231 -13.3025641025641H106.5025641025641C109.2923076923077 -13.3025641025641 110.7692307692308 -11.825641025641 110.7692307692308 -9.0358974358975V5.2410256410256zM167.7128205128206 89.0974358974359L139.6512820512821 80.2358974358974V31.0051282051282L167.7128205128205 22.1435897435897V89.0974358974359zM188.3897435897436 89.0974358974359C188.3897435897436 90.9025641025641 187.7333333333334 92.2153846153846 186.4205128205129 92.8717948717949S183.7948717948718 93.6923076923077 182.6461538461539 93.2L176.0820512820513 91.7230769230769V19.025641025641L182.6461538461539 17.0564102564102C184.123076923077 16.7282051282051 185.6 17.0564102564102 186.748717948718 18.0410256410256S188.5538461538462 20.174358974359 188.5538461538462 21.651282051282V89.0974358974359z" />
    <glyph glyph-name="left-open-mini"
      unicode="&#xF11B;"
      horiz-adv-x="76.8" d=" M76.8 98.32L16.7253333333333 42L76.8 -14.32L68.4373333333333 -22L0 42L68.4373333333333 106L76.8 98.32z" />
    <glyph glyph-name="light"
      unicode="&#xF11C;"
      horiz-adv-x="89.6" d=" M62.08 4.0266666666667H27.6266666666667C27.6266666666667 10.32 26.0266666666667 16.4 22.8266666666667 22.0533333333333C19.52 28.3466666666667 16.2133333333333 33.1466666666667 12.9066666666667 36.4533333333334C9.4933333333333 39.9733333333333 6.4 44.7733333333333 3.6266666666667 50.7466666666667C0.7466666666667 56.6133333333333 -0.4266666666667 62.48 0.1066666666667 68.4533333333334C0.96 79.0133333333333 4.9066666666667 87.8666666666667 12.16 95.0133333333333C19.7333333333333 102.3733333333333 30.6133333333333 106 44.5866666666667 106C59.0933333333333 106 69.9733333333333 102.3733333333333 77.3333333333333 95.0133333333333C84.48 87.8666666666667 88.64 79.0133333333333 89.6 68.4533333333333C89.8133333333333 63.44 89.0666666666667 58.7466666666667 87.36 54.16C85.8666666666667 49.7866666666667 83.7333333333333 45.6266666666667 80.8533333333333 41.7866666666667C79.8933333333333 40.6133333333333 78.4 38.8 76.5866666666667 36.4533333333334S73.3866666666667 32.2933333333334 72.5333333333333 31.12C70.4 28.4533333333334 67.9466666666667 24.4 65.0666666666667 18.7466666666667C63.1466666666667 14.0533333333333 62.08 9.1466666666667 62.08 4.0266666666667zM13.8666666666667 65.04C14.08 64.1866666666667 14.08 63.3333333333333 14.08 62.48C13.8666666666667 62.2666666666667 14.08 61.52 14.6133333333333 60.0266666666667C15.4666666666667 58.7466666666667 15.68 57.8933333333333 15.36 57.7866666666667C15.36 57.4666666666667 15.68 56.72 16.32 55.5466666666667L17.8133333333333 53.0933333333333L18.1333333333333 52.4533333333333C18.24 52.3466666666667 18.4533333333333 52.0266666666667 18.7733333333333 51.6S19.3066666666667 50.8533333333333 19.6266666666667 50.5333333333333C20.16 49.68 20.6933333333333 48.9333333333333 21.3333333333333 48.2933333333333C21.5466666666667 47.9733333333333 22.08 47.0133333333333 23.04 45.52C23.5733333333333 44.9866666666667 24 44.4533333333333 24.4266666666667 43.8133333333333S25.1733333333333 42.7466666666667 25.28 42.5333333333333C32.7466666666667 32.08 37.5466666666667 23.0133333333333 39.5733333333333 15.5466666666667H50.1333333333333C52.16 23.5466666666667 56.8533333333333 32.5066666666667 64.4266666666667 42.5333333333333C64.64 42.7466666666667 65.7066666666667 44.24 67.6266666666667 47.0133333333333C68.16 47.6533333333333 68.5866666666667 48.4 69.12 49.1466666666667S70.08 50.4266666666667 70.4 50.7466666666667S70.9333333333333 51.28 70.9333333333333 51.4933333333333C71.2533333333333 52.1333333333333 72 53.4133333333333 73.1733333333333 55.2266666666667C74.3466666666667 57.68 74.9866666666667 59.1733333333333 75.2 59.4933333333333C75.3066666666667 60.1333333333333 75.52 61.3066666666667 75.84 63.0133333333333C76.16 64.5066666666667 76.16 66 75.84 67.4933333333333C74.56 84.3466666666667 64.1066666666667 92.7733333333333 44.5866666666667 92.7733333333333C25.3866666666667 92.7733333333333 15.1466666666667 84.3466666666667 13.8666666666667 67.4933333333333C13.3333333333333 67.3866666666667 13.3333333333333 66.5333333333333 13.8666666666667 65.04zM26.88 -16.9866666666666V-3.44H62.8266666666667V-16.9866666666666C56.7466666666667 -20.5066666666667 50.56 -22.2133333333333 44.5866666666667 -22C38.9333333333333 -22.2133333333333 33.0666666666667 -20.5066666666667 26.88 -16.9866666666666z" />
    <glyph glyph-name="link"
      unicode="&#xF11D;"
      horiz-adv-x="128" d=" M68.1 78.6 M91.7 -20.9H15.5C7.7 -20.9 1.3 -14.5 1.3 -6.7V69.6C1.3 77.4 7.7 83.8 15.5 83.8H65.1C68 83.8 70.3 81.5 70.3 78.6S68 73.4 65.1 73.4H15.5C13.4 73.4 11.8 71.7 11.8 69.7V-6.6C11.8 -8.7 13.5 -10.3 15.5 -10.3H91.8C93.9 -10.3 95.5 -8.6 95.5 -6.6V43.4C95.5 46.3 97.8 48.6 100.7 48.6C103.6 48.6 105.9 46.3 105.9 43.4V-6.7C105.9 -14.5 99.6 -20.9 91.7 -20.9zM121.6 104.7H90.2C87.3 104.7 85 102.4 85 99.5S87.3 94.3 90.2 94.3H108.2L49.5 35.6C47.2 33.3 47.2 29.7 49.5 27.4C50.6 26.3 52.1 25.7 53.6 25.7C55.1 25.7 56.6 26.3 57.7 27.4L116.4 86.1V68.1C116.4 65.2 118.7 62.9 121.6 62.9C124.5 62.9 126.8 65.2 126.8 68.1V99.5C126.9 102.4 124.5 104.7 121.6 104.7z" />
    <glyph glyph-name="logout"
      unicode="&#xF11E;"
      horiz-adv-x="131.3568985176739" d=" M131.3568985176739 43.678449258837C131.3568985176739 25.7263397947549 124.9350057012543 10.2554161915621 112.2371721778792 -2.5883694412771S83.9224629418472 -22 65.678449258837 -22S31.963511972634 -15.4321550741163 19.1197263397948 -2.5883694412771S0 25.7263397947549 0 43.678449258837C0 61.1927023945268 5.9840364880274 76.2257696693273 18.0980615735462 88.7776510832383C18.8278221208666 90.0912200684151 19.8494868871152 90.8209806157355 21.4549600912201 90.8209806157355C22.3306727480046 90.8209806157355 23.2063854047891 90.5290763968073 23.7901938426454 89.7993158494869H24.0820980615735L31.2337514253136 83.2314709236032V82.939566704675C32.1094640820981 82.0638540478906 32.5473204104903 81.188141391106 32.5473204104903 80.6043329532497C32.5473204104903 79.4367160775371 32.1094640820981 78.4150513112885 31.2337514253136 77.539338654504C22.1847206385405 67.7605473204105 17.5142531356899 56.5222348916762 17.5142531356899 43.678449258837C17.5142531356899 30.2508551881414 22.1847206385405 18.866590649943 31.6716077537058 9.5256556442417S52.3968072976055 -4.4857468643102 65.678449258837 -4.4857468643102S90.1984036488027 0.1847206385405 99.6852907639681 9.5256556442417S113.8426453819841 30.2508551881414 113.8426453819841 43.678449258837C113.8426453819841 56.9600912200684 109.3181299885975 68.0524515393387 100.1231470923603 77.2474344355758C99.1014823261118 77.9771949828962 98.5176738882554 79.1448118586089 98.5176738882554 80.7502850627138C98.5176738882554 81.6259977194983 98.8095781071836 82.5017103762828 99.539338654504 83.0855188141391V83.3774230330673L106.690992018244 89.945267958951H106.9828962371722C107.7126567844926 90.6750285062714 108.442417331813 90.9669327251995 109.3181299885975 90.9669327251995C110.4857468643102 90.9669327251995 111.3614595210946 90.6750285062714 112.0912200684151 89.945267958951C124.9350057012543 77.1014823261118 131.3568985176739 61.7765108323831 131.3568985176739 43.678449258837zM57.0672748004561 23.5370581527936V102.2052451539339C57.0672748004561 104.6864310148233 58.3808437856328 106 60.8620296465222 106H70.4948688711517C72.9760547320411 106 74.2896237172178 104.6864310148233 74.2896237172178 102.2052451539339V23.5370581527936C74.2896237172178 21.0558722919042 72.9760547320411 19.7423033067275 70.4948688711517 19.7423033067275H60.8620296465222C58.3808437856328 19.7423033067275 57.0672748004561 21.0558722919042 57.0672748004561 23.5370581527936z" />
    <glyph glyph-name="mail"
      unicode="&#xF11F;"
      horiz-adv-x="128" d=" M113.3 94H14.7C6.6 94 0 87.4 0 79.4V4.7C0 -3.4 6.6 -10 14.7 -10H113.3C121.4 -10 128 -3.4 128 4.7V79.4C128 87.4 121.4 94 113.3 94zM14.7 85.7H113.3C116.8 85.7 119.6 82.9 119.6 79.4V72.9L67 44.4C65.1 43.4 62.9 43.4 61 44.4L8.4 72.9V79.4C8.4 82.8 11.2 85.7 14.7 85.7zM113.3 -1.7H14.7C11.2 -1.7 8.4 1.1 8.4 4.6V63.4L57 37C59.2 35.8 61.6 35.2 64 35.2C66.4 35.2 68.8 35.8 71 37L119.7 63.4V4.7C119.6 1.2 116.8 -1.7 113.3 -1.7z" />
    <glyph glyph-name="microphone"
      unicode="&#xF120;"
      horiz-adv-x="128" d=" M102.5 59.8C104.2 59.8 105 58.9 105 57V39.5C105 31.7 102.1 24.7 96.2 18.5C90.2 12.3 81.6 8.7 70.4 7.7V-9.3H87C88.7 -9.3 89.5 -10.1 89.5 -11.8V-19.6C89.5 -21.3 88.7 -22.1 87 -22.1H41C39.3 -22.1 38.5 -21.3 38.5 -19.6V-11.8C38.5 -10.1 39.3 -9.3 41 -9.3H57.5V7.7C46.3 8.7 37.7 12.3 31.7 18.5C25.9 24.7 22.9 31.7 22.9 39.5V57C22.9 58.8 23.7 59.8 25.4 59.8H29.4C31.1 59.8 31.9 58.9 31.9 57V39.5C31.9 33.8 34.4 28.6 39.4 23.7C44.2 18.9 52.4 16.5 63.9 16.5S83.6 18.9 88.4 23.7C93.4 28.5 95.9 33.8 95.9 39.5V57C95.9 58.8 96.7 59.8 98.4 59.8H102.5zM80.7 68.5H47.3C45.9 68.5 44.7 69.7 44.7 71.1V95.8C44.7 98.5 46.2 100.8 49.2 102.8C52.1 104.9 57 106 64 106S75.9 104.9 78.8 102.8C81.8 100.8 83.3 98.5 83.3 95.8V71.1C83.2 69.7 82.1 68.5 80.7 68.5zM64 29.2C57 29.2 52.1 30.3 49.2 32.4C46.2 34.4 44.7 36.7 44.7 39.4V57.2C44.7 58.6 45.9 59.8 47.3 59.8H80.6C82 59.8 83.2 58.6 83.2 57.2V39.5C83.2 36.8 81.7 34.5 78.7 32.5C75.9 30.3 71 29.2 64 29.2z" />
    <glyph glyph-name="minus"
      unicode="&#xF121;"
      horiz-adv-x="170.17624521072798" d=" M170.176245210728 42C170.176245210728 31.9463601532567 167.2337164750958 27.0421455938697 161.5938697318008 27.0421455938697H8.5823754789272C2.9425287356322 27.0421455938697 0 31.9463601532567 0 42S2.9425287356322 56.9578544061303 8.5823754789272 56.9578544061303H161.3486590038314C167.2337164750958 56.9578544061303 170.176245210728 52.0536398467433 170.176245210728 42z" />
    <glyph glyph-name="must"
      unicode="&#xF122;"
      horiz-adv-x="132.69333333333333" d=" M18.1333333333333 -9.4133333333333L42.9866666666667 31.5466666666667L0 49.2533333333333L7.04 69.3066666666667L51.9466666666667 58.32L55.8933333333333 106H77.12L81.0666666666667 58.7466666666667L125.9733333333333 69.4133333333333L132.6933333333333 49.36L89.8133333333333 31.5466666666667L114.9866666666667 -9.4133333333333L97.7066666666667 -22L66.56 15.44L35.4133333333333 -22L18.1333333333333 -9.4133333333333z" />
    <glyph glyph-name="next"
      unicode="&#xF123;"
      horiz-adv-x="132.40114613180515" d=" M90.7736389684814 46.7679083094556C92.974212034384 45.3008595988539 94.2578796561605 43.6504297994269 94.2578796561605 41.6332378223496C94.2578796561605 39.9828080229226 93.1575931232092 38.3323782234957 90.7736389684814 36.865329512894L11.1862464183381 -13.5644699140401C7.702005730659 -15.7650429799427 5.134670487106 -16.1318051575931 3.4842406876791 -14.8481375358166C1.1002865329513 -13.0143266475645 0 -10.4469914040114 0 -6.9627507163324V90.595988538682C0 94.2636103151862 1.1002865329513 96.8309455587393 3.4842406876791 98.297994269341C5.134670487106 99.3982808022923 7.702005730659 99.0315186246418 11.1862464183381 97.0143266475645L90.7736389684814 46.7679083094556zM132.4011461318052 93.163323782235V-9.5300859598854C132.4011461318052 -17.78223495702 126.8997134670487 -22 116.080229226361 -22C104.8939828080229 -22 99.3925501432665 -17.78223495702 99.3925501432665 -9.5300859598854V93.163323782235C99.3925501432665 101.7822349570201 104.8939828080229 106 116.080229226361 106C126.8997134670487 106 132.4011461318052 101.7822349570201 132.4011461318052 93.163323782235z" />
    <glyph glyph-name="pause"
      unicode="&#xF124;"
      horiz-adv-x="97.33492252681764" d=" M32.953516090584 94.2526817640048V-9.7949940405244C32.953516090584 -17.880810488677 27.46126340882 -22 16.476758045292 -22S0 -17.880810488677 0 -9.7949940405244V94.2526817640048C0 102.0333730631705 5.492252681764 106 16.476758045292 106S32.953516090584 102.0333730631705 32.953516090584 94.2526817640048zM80.8581644815256 106C91.8426698450536 106 97.3349225268176 102.0333730631705 97.3349225268176 94.2526817640048V-9.7949940405244C97.3349225268176 -17.880810488677 91.8426698450536 -22 80.8581644815256 -22S64.3814064362336 -17.880810488677 64.3814064362336 -9.7949940405244V94.2526817640048C64.3814064362336 102.0333730631705 69.8736591179976 106 80.8581644815256 106z" />
    <glyph glyph-name="play"
      unicode="&#xF125;"
      horiz-adv-x="106.07734806629836" d=" M106.0773480662984 41.8232044198895C106.0773480662984 39.7016574585635 105.1933701657459 37.9337016574586 103.2486187845304 36.8729281767956L12.3756906077348 -19.524861878453C9.1933701657459 -22 6.1878453038674 -22.5303867403315 3.7127071823204 -21.1160220994475C1.2375690607735 -19.524861878453 0 -16.6961325966851 0 -12.4530386740332V96.4530386740332C0 100.5193370165746 1.2375690607735 103.524861878453 3.7127071823204 105.1160220994475C6.1878453038674 106.5303867403315 9.0165745856354 106 12.3756906077348 103.878453038674L103.0718232044199 47.1270718232044C105.1933701657459 46.0662983425414 106.0773480662984 44.2983425414365 106.0773480662984 41.8232044198895z" />
    <glyph glyph-name="plus-add"
      unicode="&#xF126;"
      horiz-adv-x="128" d=" M124.8 52.5H74.5V102.8C74.5 104.6 73.1 106 71.3 106H56.7C54.9 106 53.5 104.6 53.5 102.8V52.5H3.2C1.4 52.5 0 51.1 0 49.3V34.7C0 32.9 1.4 31.5 3.2 31.5H53.5V-18.8C53.5 -20.6 54.9 -22 56.7 -22H71.3C73.1 -22 74.5 -20.6 74.5 -18.8V31.5H124.8C126.6 31.5 128 32.9 128 34.7V49.3C128 51.1 126.6 52.5 124.8 52.5z" />
    <glyph glyph-name="plus-circle-outline"
      unicode="&#xF127;"
      horiz-adv-x="128" d=" M18.7733333333333 87.2266666666667C31.2451282051282 99.6984615384616 46.3425641025641 106 64.065641025641 106S96.7548717948718 99.6984615384616 109.3579487179487 87.2266666666667S128.1312820512821 59.6574358974359 128.1312820512821 41.934358974359S121.6984615384615 9.2451282051282 109.2266666666667 -3.2266666666667S81.6574358974359 -22 63.934358974359 -22S31.2451282051282 -15.6984615384615 18.7733333333333 -3.2266666666667S0 24.3425641025641 0 41.934358974359S6.3015384615385 74.7548717948718 18.7733333333333 87.2266666666667zM22.4492307692308 0.4492307692308C34.0020512820513 -11.1035897435897 47.7866666666667 -16.7487179487179 63.934358974359 -16.7487179487179S93.9979487179487 -10.9723076923077 105.4194871794872 0.4492307692308S122.6174358974359 25.7866666666667 122.6174358974359 41.934358974359S116.9723076923077 71.9979487179487 105.5507692307692 83.5507692307692S80.2133333333333 100.748717948718 64.065641025641 100.748717948718S34.0020512820513 94.9723076923077 22.4492307692308 83.5507692307692S5.2512820512821 58.2133333333333 5.2512820512821 41.934358974359S11.0276923076923 12.0020512820513 22.4492307692308 0.4492307692308zM66.428717948718 81.3189743589744V44.428717948718H103.3189743589744V39.1774358974359H66.428717948718V2.5497435897436H61.1774358974359V39.1774358974359H24.6810256410256V44.428717948718H61.308717948718V81.3189743589744H66.428717948718z" />
    <glyph glyph-name="prev"
      unicode="&#xF128;"
      horiz-adv-x="132.40114613180515" d=" M16.6876790830946 106C27.6905444126074 106 33.0085959885387 101.7822349570201 33.0085959885387 93.163323782235V-9.5300859598854C33.0085959885387 -17.78223495702 27.5071633237822 -22 16.6876790830946 -22C5.5014326647564 -22 0 -17.9656160458453 0 -9.5300859598854V93.163323782235C0 101.7822349570201 5.5014326647564 106 16.6876790830946 106zM38.3266475644699 41.4498567335244C38.3266475644699 43.4670487106017 39.4269340974212 45.1174785100287 41.810888252149 46.5845272206304L121.7650429799427 96.8309455587393C124.8825214899714 99.0315186246418 127.2664756446992 99.5816618911175 129.1002865329513 98.1146131805158C131.3008595988539 96.8309455587393 132.4011461318052 94.2636103151862 132.4011461318052 90.595988538682V-6.9627507163324C132.4011461318052 -10.4469914040115 131.3008595988539 -13.0143266475645 128.9169054441261 -14.6647564469914C127.2664756446992 -16.1318051575931 124.6991404011461 -15.7650429799427 121.5816618911175 -13.5644699140401L41.6275071633238 36.865329512894C39.4269340974212 38.1489971346705 38.3266475644699 39.7994269340974 38.3266475644699 41.4498567335244z" />
    <glyph glyph-name="profile"
      unicode="&#xF129;"
      horiz-adv-x="128" d=" M128 42C128 24.2933333333333 121.7066666666667 9.2533333333333 109.2266666666667 -3.2266666666667S81.7066666666667 -22 64 -22S31.2533333333333 -15.7066666666667 18.7733333333333 -3.2266666666667S0 24.2933333333333 0 42S6.2933333333333 74.7466666666667 18.7733333333333 87.2266666666667S46.2933333333333 106 64 106S96.7466666666667 99.7066666666667 109.2266666666667 87.2266666666667S128 59.7066666666667 128 42zM121.7066666666667 42C121.7066666666667 57.7866666666667 116.0533333333334 71.44 104.7466666666667 82.7466666666667S79.7866666666667 99.7066666666667 64 99.7066666666667S34.56 94.0533333333333 23.2533333333333 82.7466666666667S6.2933333333333 57.7866666666667 6.2933333333333 42C6.2933333333333 25.04 12.5866666666667 10.8533333333333 25.28 -0.4533333333333C26.24 8.1866666666667 29.3333333333333 15.44 34.4533333333333 21.3066666666667S45.44 30.0533333333333 52.2666666666667 30.0533333333333H74.0266666666667C81.0666666666667 30.0533333333333 87.1466666666667 26.96 92.2666666666667 20.7733333333333S100.48 7.0133333333333 101.2266666666667 -1.9466666666667C114.88 9.4666666666667 121.7066666666667 24.1866666666667 121.7066666666667 42zM64 -15.7066666666667C74.6666666666667 -15.7066666666667 84.9066666666667 -12.72 94.72 -6.7466666666667V-6.2133333333333C94.72 2 92.6933333333333 8.9333333333333 88.64 14.6933333333334S79.68 23.2266666666667 74.0266666666667 23.2266666666667H52.2666666666667C46.6133333333333 23.2266666666667 41.8133333333333 20.4533333333333 37.76 14.8S31.68 2.5333333333333 31.4666666666667 -5.4666666666667C41.1733333333333 -12.2933333333333 52.0533333333333 -15.7066666666667 64 -15.7066666666667zM85.2266666666667 55.2266666666667C85.2266666666667 48.6133333333333 82.88 42.8533333333333 78.1866666666667 38.2666666666667S67.9466666666667 31.2266666666667 61.2266666666667 31.2266666666667S48.96 33.5733333333333 44.2666666666667 38.2666666666667S37.2266666666667 48.6133333333333 37.2266666666667 55.2266666666667S39.5733333333333 67.6 44.2666666666667 72.2933333333333S54.6133333333333 79.3333333333333 61.2266666666667 79.3333333333333S73.6 76.88 78.2933333333333 72.2933333333333S85.2266666666667 61.9466666666667 85.2266666666667 55.2266666666667zM78.72 55.2266666666667C78.72 60.0266666666667 77.0133333333333 64.1866666666667 73.6 67.6S66.1333333333333 72.72 61.2266666666667 72.72S52.2666666666667 71.0133333333333 48.8533333333333 67.6S43.7333333333333 60.1333333333333 43.7333333333333 55.2266666666667S45.44 46.2666666666667 48.8533333333333 42.8533333333333S56.4266666666667 37.7333333333333 61.2266666666667 37.7333333333333S70.1866666666667 39.44 73.6 42.8533333333333S78.72 50.4266666666667 78.72 55.2266666666667z" />
    <glyph glyph-name="reload"
      unicode="&#xF12A;"
      horiz-adv-x="128" d=" M123.8 44.6H112.5C111.1 75.5 84.9 100 53.3 98.3C24.7 96.8 1.6 73.7 0.1 45.1C-1.6 12.6 24.3 -14.3 56.4 -14.3C62.9 -14.3 69.3 -13.2 75.3 -11C75.4 -11 75.5 -10.9 75.7 -10.9L76.6 -10.6C76.8 -10.5 77 -10.5 77.1 -10.4C77.3 -10.3 77.4 -10.2 77.6 -10.2C77.7 -10.2 77.7 -10.1 77.8 -10.1C78 -10 78.1 -10 78.3 -9.9C78.5 -9.8 78.7 -9.7 78.9 -9.7C79 -9.7 79 -9.6 79.1 -9.6C80.8 -8.8 81.6 -6.8 80.9 -5L77.5 3.5C76.8 5.3 74.7 6.2 72.9 5.5C72.9 5.5 69.8 4.2 69.8 4.2C69.5 4.1 69.3 3.9 69 3.8C68.7 3.7 68.4 3.6 68.1 3.5C67.4 3.3 66.7 3.1 66 2.9C64.6 2.6 63.2 2.3 61.8 2.1C60.4 1.9 58.9 1.8 57.5 1.8C57.2 1.8 57 1.8 56.7 1.8C33.5 1.8 14.8 21.6 16.5 45.2C18 64.9 33.9 80.8 53.6 82.3C76 83.9 94.9 66.6 96.4 44.6H85.3C81.6 44.6 79.7 40.2 82.2 37.5L101.5 17C103.2 15.2 106 15.2 107.6 17L126.9 37.5C129.4 40.2 127.5 44.6 123.8 44.6z" />
    <glyph glyph-name="right-open-mini"
      unicode="&#xF12B;"
      horiz-adv-x="76.8" d=" M0 98.32L8.3626666666667 106L76.8 42L8.3626666666667 -22L0 -14.32L60.0746666666667 42L0 98.32z" />
    <glyph glyph-name="search"
      unicode="&#xF12C;"
      horiz-adv-x="128" d=" M126.2 -11.3L96.3 18.6C103.6 27.8 108 39.4 108 52C108 81.8 83.8 106 54 106S0 81.8 0 52S24.2 -2 54 -2C66.6 -2 78.2 2.4 87.5 9.7L117.4 -20.2C119.8 -22.6 123.8 -22.6 126.2 -20.2C128.6 -17.7 128.6 -13.8 126.2 -11.3zM12.5 52C12.5 74.9 31.1 93.5 54 93.5S95.5 74.9 95.5 52S76.9 10.5 54 10.5S12.5 29.1 12.5 52z" />
    <glyph glyph-name="setting-fill"
      unicode="&#xF12D;"
      horiz-adv-x="128" d=" M115.8095238095238 42C115.8095238095238 34.8888888888889 119.8730158730159 28.6666666666667 128 23.5873015873016C126.984126984127 19.7777777777778 125.3333333333333 15.5873015873016 122.9206349206349 11.015873015873C115.9365079365079 12.7936507936508 109.0793650793651 10.5079365079365 102.0952380952381 4.1587301587302C96.7619047619048 -1.8095238095238 95.1111111111111 -8.7936507936508 97.015873015873 -16.6666666666667C89.5238095238095 -19.8412698412698 85.2063492063492 -21.6190476190476 84.1904761904762 -22C79.4920634920635 -13.6190476190476 72.7619047619048 -9.4285714285714 64 -9.4285714285714S48.5079365079365 -13.6190476190476 43.8095238095238 -21.8730158730159C42.7936507936508 -21.4920634920635 38.6031746031746 -19.7142857142857 30.984126984127 -16.5396825396825C33.015873015873 -8.4126984126984 31.2380952380952 -1.4285714285714 25.9047619047619 4.2857142857143C20.3174603174603 9.7460317460317 13.3333333333333 11.3968253968254 5.0793650793651 9.2380952380952C3.3015873015873 13.3015873015873 1.5238095238095 17.3650793650794 0 21.8095238095238C8.3809523809524 27.1428571428572 12.4444444444444 33.8730158730159 12.4444444444444 42C12.4444444444444 49.4920634920635 8.2539682539683 55.8412698412698 0 60.7936507936508C1.7777777777778 66.1269841269841 3.4285714285714 70.3174603174603 5.0793650793651 73.2380952380952C12.5714285714286 71.4603174603175 19.5555555555556 73.7460317460318 25.9047619047619 80.0952380952381C31.2380952380952 85.8095238095238 32.8888888888889 92.7936507936508 30.984126984127 100.9206349206349C36.0634920634921 103.3333333333333 40.3809523809524 104.984126984127 43.8095238095238 106C48.6349206349206 97.8730158730159 55.3650793650794 93.8095238095238 64 93.8095238095238S79.4920634920635 97.8730158730159 84.1904761904762 106C87.6190476190476 104.984126984127 91.8095238095238 103.3333333333333 97.015873015873 100.9206349206349C94.984126984127 93.0476190476191 96.7619047619048 86.0634920634921 102.0952380952381 80.0952380952381C109.0793650793651 73.7460317460318 115.9365079365079 71.4603174603175 122.9206349206349 73.2380952380952C125.3333333333333 68.6666666666667 126.984126984127 64.4761904761905 128 60.7936507936508C119.8730158730159 55.5873015873016 115.8095238095238 49.3650793650794 115.8095238095238 42zM83.6825396825397 22.3174603174603C89.015873015873 27.6507936507937 91.6825396825397 34.2539682539683 91.6825396825397 42C91.6825396825397 49.4920634920635 89.015873015873 56.2222222222222 83.6825396825397 61.936507936508C78.2222222222222 67.2698412698413 71.7460317460318 69.936507936508 64 69.936507936508S49.6507936507937 67.2698412698413 44.3174603174603 61.9365079365079C38.984126984127 56.2222222222222 36.3174603174603 49.4920634920635 36.3174603174603 42C36.3174603174603 34.2539682539683 38.984126984127 27.7777777777778 44.3174603174603 22.3174603174603S56.2539682539682 14.3174603174603 64 14.3174603174603S78.2222222222222 16.984126984127 83.6825396825397 22.3174603174603z" />
    <glyph glyph-name="setting-outline"
      unicode="&#xF12E;"
      horiz-adv-x="120.9645390070922" d=" M92.3687943262411 3.0780141843972C87.9432624113475 -0.2127659574468 83.4042553191489 -3.0496453900709 78.1843971631206 -5.0921985815603C77.5035460992908 -8.8368794326241 76.5957446808511 -12.5815602836879 76.0283687943262 -16.3262411347518C75.5744680851064 -19.3900709219858 73.7588652482269 -20.7517730496454 70.9219858156028 -21.2056737588652C63.886524822695 -22.3404255319149 56.9645390070922 -22.3404255319149 50.0425531914894 -21.2056737588652C47.0921985815603 -20.7517730496454 45.3900709219858 -19.3900709219858 44.822695035461 -16.3262411347518C44.2553191489362 -12.6950354609929 43.4609929078014 -9.177304964539 42.6666666666667 -5.2056737588652C38.0141843971631 -2.936170212766 33.0212765957447 -0.6666666666667 28.709219858156 3.0780141843972C25.1914893617021 1.8297872340426 21.6737588652482 0.8085106382979 18.3829787234043 -0.5531914893617C15.0921985815603 -1.8014184397163 12.822695035461 -1.0070921985816 10.7801418439716 1.6028368794326C6.5815602836879 6.9361702127659 3.290780141844 12.7234042553191 0.6808510638298 18.9645390070922C-0.5673758865248 22.0283687943262 -0.2269503546099 24.5248226950355 2.4964539007092 26.6808510638298C5.3333333333333 28.9503546099291 8.0567375886525 31.4468085106383 10.8936170212766 33.8297872340425C10.0992907801418 39.2765957446809 9.9858156028369 44.4964539007092 10.8936170212766 50.0567375886525C8.0567375886525 52.4397163120567 5.4468085106383 54.936170212766 2.6099290780142 57.2056737588653C0 59.3617021276596 -0.5673758865248 61.6312056737589 0.6808510638298 64.8085106382979C3.177304964539 71.2765957446809 6.6950354609929 77.063829787234 10.8936170212766 82.5106382978723C12.936170212766 85.1205673758865 15.2056737588653 85.6879432624114 18.1560283687943 84.5531914893617C21.5602836879433 83.3049645390071 24.9645390070922 82.1702127659575 28.5957446808511 80.9219858156028C33.0212765957447 84.0992907801418 37.4468085106383 86.936170212766 42.6666666666667 88.9787234042553C43.3475177304965 92.7234042553192 44.2553191489362 96.354609929078 44.822695035461 100.0992907801418C45.2765957446809 103.1631205673759 46.8652482269504 104.6382978723404 49.8156028368794 105.0921985815603C56.9645390070922 106.2269503546099 64.113475177305 106.2269503546099 71.1489361702128 105.0921985815603C73.9858156028369 104.6382978723404 75.5744680851064 103.2765957446809 76.0283687943262 100.4397163120567C76.709219858156 96.6950354609929 77.3900709219858 92.9503546099291 78.1843971631206 89.2056737588653C83.404255319149 87.0496453900709 87.9432624113475 84.2127659574468 92.4822695035461 81.0354609929078C96 82.2836879432624 99.5177304964539 83.531914893617 102.9219858156028 84.7801418439716C105.645390070922 85.8014184397163 107.9148936170213 85.2340425531915 109.8439716312057 82.8510638297872C114.3829787234043 77.177304964539 117.9007092198582 71.0496453900709 120.5106382978723 64.354609929078C121.531914893617 61.7446808510638 120.9645390070922 59.5886524822695 118.8085106382979 57.7730496453901C115.9716312056738 55.1631205673759 113.0212765957447 52.6666666666667 110.1843971631206 50.2836879432624C110.8652482269504 44.7234042553191 111.2056737588653 39.3900709219858 110.0709219858156 33.8297872340425C112.7943262411348 31.4468085106383 115.5177304964539 28.9503546099291 118.354609929078 26.6808510638298C120.9645390070922 24.5248226950355 121.531914893617 22.2553191489362 120.2836879432624 19.0780141843972C117.6737588652482 12.6099290780142 114.2695035460993 6.822695035461 109.9574468085106 1.3758865248227C107.9148936170213 -1.2340425531915 105.645390070922 -1.6879432624114 102.6950354609929 -0.6666666666667C99.4042553191489 0.5815602836879 96.113475177305 1.7163120567376 92.3687943262411 3.0780141843972zM103.6028368794326 73.7730496453901C99.0638297872341 72.1843971631206 94.7517730496454 70.709219858156 90.3262411347518 69.2340425531915C84.0851063829787 75.1347517730496 76.709219858156 78.9929078014184 69.1063829787234 81.6028368794326C68.1985815602837 86.4822695035461 67.290780141844 90.7943262411348 66.4964539007092 95.1063829787234C62.2978723404255 96.1276595744681 58.4397163120568 96.2411347517731 54.354609929078 94.9929078014184C53.4468085106383 90.4539007092199 52.5390070921986 86.0283687943262 51.6312056737589 81.2624113475177C43.5744680851064 79.2198581560284 36.7659574468085 74.6808510638298 30.6382978723404 69.2340425531915C25.9858156028369 70.822695035461 21.6737588652482 72.2978723404255 17.3617021276596 73.886524822695C14.7517730496454 70.4822695035461 12.709219858156 67.1914893617021 11.3475177304965 63.3333333333333C14.9787234042553 60.1560283687943 18.4964539007092 57.0921985815603 22.1276595744681 53.9148936170213C20.0851063829787 45.7446808510638 20.3120567375887 37.6879432624114 22.0141843971631 29.8581560283688C18.2695035460993 26.5673758865248 14.7517730496454 23.5035460992908 11.3475177304965 20.4397163120567C12.936170212766 16.468085106383 14.7517730496454 13.290780141844 17.4751773049645 10.113475177305C21.9007092198582 11.5886524822695 26.3262411347518 13.177304964539 30.8652482269504 14.7659574468085C36.8794326241135 8.6382978723404 44.1418439716312 5.0070921985815 51.7446808510638 2.3971631205674C52.6524822695035 -2.4822695035461 53.5602836879433 -6.7943262411348 54.354609929078 -11.3333333333333C58.5531914893617 -11.9007092198582 62.5248226950355 -12.468085106383 66.4964539007092 -10.9929078014185C67.404255319149 -6.4539007092199 68.1985815602837 -2.1418439716312 69.1063829787234 2.3971631205674C77.0496453900709 4.8936170212766 84.1985815602837 8.8652482269503 90.2127659574468 14.6524822695035C94.7517730496454 13.063829787234 99.0638297872341 11.5886524822695 103.3758865248227 10.1134751773049C106.0992907801419 13.290780141844 108.0283687943263 16.6950354609929 109.3900709219858 20.6666666666666C105.8723404255319 23.7304964539007 102.468085106383 26.6808510638298 99.177304964539 29.5177304964539C99.7446808510638 33.8297872340425 100.4255319148936 37.9148936170213 100.4255319148936 42C100.4255319148936 46.0851063829787 99.6312056737589 50.1702127659574 99.177304964539 54.2553191489362C102.581560283688 57.2056737588653 105.9858156028369 60.2695035460993 109.5035460992908 63.2198581560284C108.2553191489362 67.1914893617021 106.0992907801418 70.3687943262411 103.6028368794326 73.7730496453901zM60.3687943262411 68.4397163120567C74.2127659574468 68.4397163120567 85.4468085106383 57.3191489361702 85.5602836879433 43.5886524822695C85.6737588652482 29.7446808510638 74.3262411347518 18.1702127659574 60.4822695035461 18.0567375886525C46.6382978723404 18.0567375886525 35.0638297872341 29.6312056737589 35.290780141844 43.4751773049645C35.4042553191489 57.4326241134752 46.6382978723404 68.4397163120567 60.3687943262411 68.4397163120567zM44.4822695035461 43.7021276595745C44.2553191489362 35.0780141843972 51.290780141844 27.5886524822695 60.1418439716312 27.3617021276596C68.8794326241135 27.1347517730497 76.1418439716312 34.1702127659574 76.4822695035461 43.0212765957447C76.709219858156 51.758865248227 69.6737588652482 59.1347517730496 60.936170212766 59.3617021276596C51.9716312056738 59.4751773049645 44.822695035461 52.6666666666667 44.4822695035461 43.7021276595745z" />
    <glyph glyph-name="smartphone"
      unicode="&#xF12F;"
      horiz-adv-x="75.4732370433305" d=" M62.4231096006797 106C66.1206457094308 106 69.2744265080714 104.6949872557349 71.8844519966015 102.1937128292269C74.2769753610875 99.8011894647409 75.4732370433305 96.7561597281223 75.4732370433305 93.0586236193713V-8.9498725573492C75.4732370433305 -12.5386576040782 74.2769753610875 -15.5836873406967 71.8844519966015 -18.0849617672048C69.3831775700935 -20.5862361937128 66.2293967714528 -21.8912489379779 62.4231096006797 -21.8912489379779H13.0501274426508C9.4613423959218 -21.8912489379779 6.4163126593033 -20.5862361937128 3.9150382327952 -18.0849617672048C1.3050127442651 -15.3661852166525 0 -12.321155480034 0 -8.9498725573492V92.9498725573492C0 96.5386576040782 1.3050127442651 99.5836873406967 3.8062871707732 102.0849617672048S9.4613423959218 106 13.0501274426508 106H62.4231096006797zM65.250637213254 88.9260832625319H10.2225998300765V2.7952421410365H65.250637213254V88.9260832625319zM37.7366185216653 -16.5624468988955C40.4553950722175 -16.5624468988955 42.6304163126593 -16.018691588785 44.3704333050127 -14.822429906542C46.1104502973662 -13.517417162277 46.8717077315208 -11.8861512319456 46.8717077315208 -10.2548853016143C46.8717077315208 -8.4061172472387 46.0016992353441 -6.7748513169074 44.3704333050127 -5.3610875106202C42.304163126593 -4.1648258283772 40.1291418861512 -3.6210705182668 37.7366185216653 -3.6210705182668S33.2778249787596 -4.2735768903993 31.3203058623619 -5.6873406966865S28.4927782497876 -8.6236193712829 28.4927782497876 -10.2548853016143S29.4715378079864 -13.517417162277 31.3203058623619 -14.822429906542C33.0603228547154 -16.018691588785 35.1265930331351 -16.5624468988955 37.7366185216653 -16.5624468988955z" />
    <glyph glyph-name="smile-o"
      unicode="&#xF130;"
      horiz-adv-x="128" d=" M128 42.062317429406C128 29.9727361246349 125.1333982473223 19.2541382667965 119.524829600779 9.9065238558909C113.6669912366115 0.1850048685492 105.8149951314508 -7.6669912366115 96.0934761441091 -13.524829600779C86.7458617332035 -19.1333982473223 76.0272638753651 -22 63.937682570594 -22S41.1295034079844 -19.1333982473223 31.7818889970789 -13.524829600779C22.0603700097371 -7.6669912366115 14.3330087633885 0.1850048685492 8.475170399221 9.9065238558909C2.8666017526777 19.2541382667965 0 29.9727361246349 0 42.062317429406S2.8666017526777 64.8704965920156 8.475170399221 74.2181110029211C14.3330087633885 83.9396299902629 22.0603700097371 91.7916260954236 31.9065238558909 97.6494644595911C41.1295034079844 103.1333982473223 51.8481012658228 106 63.937682570594 106S86.7458617332035 103.1333982473223 96.0934761441091 97.524829600779C105.8149951314508 91.6669912366115 113.6669912366115 83.9396299902629 119.524829600779 74.0934761441091C125.1333982473223 64.8704965920156 128 54.1518987341772 128 42.062317429406zM117.4060370009737 42.062317429406C117.4060370009737 49.0418695228822 115.9104186952289 56.0214216163583 113.0438169425511 62.7517039922103C110.5511197663097 69.3573515092503 106.6874391431354 74.9659201557936 101.7020447906524 79.7020447906524C96.9659201557936 84.8120740019474 91.3573515092503 88.5511197663096 84.7517039922103 91.0438169425511C77.8967867575463 94.0350535540409 71.0418695228822 95.5306718597858 63.937682570594 95.5306718597858S50.1032132424538 94.0350535540409 43.2482960077897 91.0438169425511C36.6426484907498 88.5511197663096 30.9094449853944 84.8120740019474 26.2979552093476 79.7020447906524C21.1879259980526 75.0905550146056 17.4488802336904 69.3573515092502 14.9561830574489 62.7517039922103C12.0895813047712 55.8967867575462 10.5939629990263 49.0418695228822 10.5939629990263 42.062317429406S11.9649464459591 28.1032132424537 14.9561830574489 21.2482960077897C17.4488802336904 14.6426484907498 21.1879259980526 9.0340798442064 26.2979552093476 4.2979552093476C31.0340798442064 -0.8120740019474 36.6426484907498 -4.5511197663097 43.2482960077897 -7.0438169425511C50.1032132424538 -9.9104186952288 56.9581304771178 -11.4060370009737 63.937682570594 -11.4060370009737S77.8967867575463 -9.9104186952288 84.7517039922103 -7.0438169425511C91.3573515092503 -4.5511197663097 96.9659201557936 -0.6874391431354 101.7020447906524 4.2979552093476C106.6874391431354 9.0340798442064 110.5511197663096 14.6426484907498 113.0438169425511 21.2482960077897C115.9104186952289 28.1032132424537 117.4060370009737 34.9581304771178 117.4060370009737 42.062317429406zM53.2190847127556 63.3748782862707C53.2190847127556 60.2590068159688 52.222005842259 57.7663096397274 50.3524829600779 55.7721518987342S45.7409931840312 52.7809152872444 42.6251217137293 52.7809152872444S37.016553067186 53.777994157741 35.0223953261928 55.7721518987342C32.9036027263875 57.8909444985394 31.7818889970789 60.3836416747809 31.7818889970789 63.3748782862707S32.9036027263875 68.858812074002 35.0223953261928 70.9776046738072S39.7585199610516 74.2181110029211 42.6251217137293 74.2181110029211S48.1090555014606 73.0963972736125 50.2278481012658 70.9776046738072C52.222005842259 68.983446932814 53.2190847127556 66.4907497565725 53.2190847127556 63.3748782862707zM94.5978578383642 27.1061343719572C92.7283349561831 20.5004868549172 88.7400194741967 15.016553067186 83.0068159688413 10.7789678675755C77.2736124634859 6.666017526777 71.0418695228822 4.6718597857838 63.937682570594 4.6718597857838S50.601752677702 6.666017526777 44.9931840311587 10.7789678675755C39.1353456669912 15.016553067186 35.2716650438169 20.5004868549172 33.2775073028238 27.1061343719572C32.9036027263875 28.7263875365141 33.1528724440117 30.0973709834469 33.9006815968841 31.2190847127556C34.5238558909445 32.3407984420643 35.396299902629 33.2132424537488 36.7672833495618 33.8364167478092C38.5121713729309 34.2103213242454 39.8831548198637 34.0856864654333 40.8802336903603 33.587147030185C42.3758519961052 32.5900681596884 43.3729308666018 31.5929892891918 43.4975657254138 30.3466407010711C44.8685491723467 25.8597857838364 47.4858812074002 22.2453748782863 51.3495618305745 19.5034079844206C54.8393378773126 16.761441090555 59.0769230769231 15.3904576436222 63.937682570594 15.3904576436222S73.0360272638754 16.761441090555 76.5258033106134 19.5034079844206C80.3894839337877 22.2453748782863 83.0068159688413 25.8597857838364 84.3777994157741 30.3466407010711C84.6270691333982 31.4683544303797 85.4995131450828 32.5900681596884 86.9951314508277 33.587147030185C87.9922103213243 34.2103213242454 89.3631937682571 34.2103213242454 91.1080817916261 33.8364167478091C92.4790652385589 33.2132424537488 93.4761441090555 32.3407984420643 94.0993184031159 31.2190847127556C94.8471275559883 30.0973709834469 94.9717624148004 28.7263875365141 94.5978578383642 27.1061343719572zM92.8529698149951 70.9776046738072C94.9717624148004 68.858812074002 96.0934761441091 66.2414800389484 96.0934761441091 63.3748782862707S94.9717624148004 57.8909444985394 92.8529698149951 55.7721518987342C90.983446932814 53.777994157741 88.3661148977605 52.7809152872444 85.2502434274586 52.7809152872444S79.6416747809153 53.777994157741 77.6475170399221 55.7721518987342S74.7809152872444 60.2590068159688 74.7809152872444 63.3748782862707S75.777994157741 68.983446932814 77.6475170399221 70.9776046738072C79.7663096397274 73.0963972736125 82.3836416747809 74.2181110029211 85.2502434274586 74.2181110029211S90.7341772151899 73.0963972736125 92.8529698149951 70.9776046738072z" />
    <glyph glyph-name="social-fb"
      unicode="&#xF131;"
      horiz-adv-x="71.2430426716141" d=" M50.9387755102041 84.0333951762523C49.6326530612245 84.0333951762523 48.4452690166976 83.3209647495362 47.3766233766234 81.7773654916512C46.4267161410019 80.3525046382189 45.9517625231911 78.5714285714286 45.9517625231911 76.5528756957328V62.0667903525046H71.2430426716141V40.9313543599258H45.9517625231911V-22H21.7291280148423V40.9313543599258H0V62.0667903525046H21.7291280148423V74.2968460111317C21.7291280148423 83.2022263450835 24.4601113172542 90.682745825603 30.0408163265306 96.8571428571429S42.6270871985158 106 50.9387755102041 106H71.2430426716141V84.0333951762523H50.9387755102041z" />
    <glyph glyph-name="social-instagram-fill"
      unicode="&#xF132;"
      horiz-adv-x="128" d=" M108.2599418040737 106C113.8467507274491 106 118.5645004849661 104.0135790494665 122.164888457808 100.164888457808C126.0135790494665 96.4403491755577 128 91.8467507274491 128 86.2599418040737V64.4093113482056H95.7206595538312C87.7749757516974 75.2104752667313 77.2221144519884 80.6731328806984 64.0620756547042 80.6731328806984C50.529582929195 80.6731328806984 39.8525703200776 75.2104752667313 32.4034917555771 64.4093113482056H0V86.2599418040737C0 91.8467507274491 1.9864209505335 96.5645004849661 5.835111542192 100.164888457808C9.5596508244423 104.0135790494665 14.1532492725509 106 19.7400581959263 106H108.2599418040737zM102.6731328806983 41.9379243452958C102.6731328806983 44.2967992240543 102.4248302618817 46.7798254122211 101.80407371484 49.5111542192047H128V-2.011639185257C128 -7.5984481086324 126.0135790494665 -12.4403491755577 122.1648884578079 -16.2890397672163S113.5984481086324 -22.1241513094083 108.2599418040737 -22.1241513094083H19.7400581959263C14.2774005819593 -22.1241513094083 9.6838021338506 -20.1377303588749 5.835111542192 -16.2890397672163S0 -7.5984481086324 0 -2.011639185257V49.5111542192047H25.9476236663434C25.45101842871 45.2900096993211 25.3268671193017 42.8069835111542 25.3268671193017 41.9379243452958C25.3268671193017 31.5092143549952 29.0514064015519 22.3220174587779 36.6246362754607 14.6246362754607C44.1978661493695 7.0514064015519 53.2609117361785 3.3268671193017 63.9379243452958 3.3268671193017C74.3666343355965 3.3268671193017 83.5538312318138 7.0514064015519 91.2512124151309 14.6246362754607C98.9485935984481 22.4461687681862 102.6731328806983 31.5092143549952 102.6731328806983 41.9379243452958zM80.9466537342386 25.0533462657614C76.2289039767216 20.4597478176528 70.6420950533463 18.1008729388943 64.0620756547042 18.1008729388943S51.7710960232784 20.4597478176528 47.1774975751697 25.0533462657614S40.1008729388943 35.3579049466537 40.1008729388943 41.9379243452958C40.1008729388943 48.890397672163 42.4597478176528 54.6013579049467 47.0533462657614 58.8225024248303C51.7710960232784 63.5402521823472 57.3579049466537 65.7749757516974 63.9379243452958 65.7749757516974S76.2289039767216 63.5402521823472 80.9466537342386 58.8225024248303C85.6644034917556 54.6013579049467 87.8991270611057 48.890397672163 87.8991270611057 41.9379243452958C87.8991270611057 35.3579049466537 85.5402521823472 29.7710960232784 80.9466537342386 25.0533462657614zM117.5712900096993 81.2938894277401V92.0950533462658C117.5712900096993 94.4539282250242 116.4539282250243 95.5712900096993 114.0950533462658 95.5712900096993H103.2938894277401C100.9350145489816 95.5712900096993 99.8176527643065 94.4539282250242 99.8176527643065 92.0950533462658V81.2938894277401C99.8176527643065 80.6731328806984 100.0659553831232 79.9282250242483 100.6867119301649 78.9350145489816C101.431619786615 78.1901066925315 102.3006789524734 77.8176527643065 103.2938894277401 77.8176527643065H114.0950533462658C116.4539282250243 77.8176527643065 117.5712900096993 78.9350145489816 117.5712900096993 81.2938894277401z" />
    <glyph glyph-name="social-twitter"
      unicode="&#xF133;"
      horiz-adv-x="158.53079507278838" d=" M142.0470324748041 74.0358342665174V70.0223964165733C142.0470324748041 55.2586786114222 138.7502799552072 40.9249720044793 132.0134378499441 27.0212765957447C124.8465845464726 13.1175811870101 114.0963045912654 1.5072788353863 99.7625979843225 -7.952967525196C85.2855543113102 -17.2698768197089 68.6584546472565 -22 50.0246360582307 -22C31.6774916013438 -22 15.05039193729 -17.1265397536394 0 -7.5229563269877C1.1466965285554 -7.8096304591265 3.8701007838746 -7.8096304591265 8.026875699888 -7.8096304591265C23.2206047032475 -7.8096304591265 36.6942889137738 -3.3661814109742 48.3045912653975 5.6640537513998C41.424412094065 5.8073908174692 35.1175811870101 7.9574468085106 29.5274356103024 12.2575587905935C23.9372900335946 16.2709966405375 20.06718924972 21.7178051511758 18.060470324748 28.3113101903695C19.3505039193729 27.8812989921612 21.3572228443449 27.5946248600224 23.7939529675252 27.5946248600224C26.9473684210526 27.5946248600224 29.8141097424412 27.8812989921612 32.5375139977604 28.5979843225084C24.9406494960806 30.3180291153415 18.6338185890258 34.0447928331467 13.7603583426652 40.2082866741321C9.030235162374 46.2284434490482 6.7368421052632 52.9652855543113 6.7368421052632 60.7054871220605V60.9921612541993C11.4669652855543 58.555431131019 16.1970884658455 57.1220604703247 21.2138857782755 56.9787234042553C11.6103023516237 63.7155655095185 6.7368421052632 72.7458006718925 6.7368421052632 84.2127659574468C6.7368421052632 89.8029115341545 8.1702127659574 95.2497200447928 11.036954087346 100.2665173572229C28.9540873460246 78.4792833146697 51.3146696528556 67.2989921612542 78.2620380739082 66.7256438969765C77.545352743561 68.7323628219485 77.2586786114222 71.0257558790594 77.2586786114222 73.7491601343785C77.2586786114222 82.922732362822 80.4120940649496 90.5195968645017 86.7189249720045 96.5397536394177C92.8824188129899 102.8465845464726 100.6226203807391 106 109.7961926091825 106C119.2564389697649 106 126.996640537514 102.7032474804031 133.3034714445689 96.2530795072788C140.7569988801792 97.8297872340426 147.4938409854424 100.2665173572228 153.8006718924972 103.7066069428891C151.363941769317 96.1097424412094 146.6338185890258 90.0895856662934 139.7536394176932 85.93281075028C146.2038073908175 87.0795072788354 152.5106382978724 88.7995520716685 158.5307950727884 90.94960806271C153.8006718924972 84.3561030235162 148.3538633818589 78.7659574468085 142.0470324748041 74.0358342665174z" />
    <glyph glyph-name="sort"
      unicode="&#xF134;"
      horiz-adv-x="128" d=" M124 78.1H4C2.2 78.1 0.7 79.6 0.7 81.4V91.3C0.7 93.1 2.2 94.6 4 94.6H124C125.8 94.6 127.3 93.1 127.3 91.3V81.4C127.3 79.5 125.8 78.1 124 78.1z M124 33.8H42C40.2 33.8 38.7 35.3 38.7 37.1V47C38.7 48.8 40.2 50.3 42 50.3H124C125.8 50.3 127.3 48.8 127.3 47V37.1C127.3 35.2 125.8 33.8 124 33.8z M124 -10.5H80C78.2 -10.5 76.7 -9 76.7 -7.2V2.7C76.7 4.5 78.2 6 80 6H124C125.8 6 127.3 4.5 127.3 2.7V-7.2C127.3 -9 125.8 -10.5 124 -10.5z" />
    <glyph glyph-name="square-o"
      unicode="&#xF135;"
      horiz-adv-x="128" d=" M128 79.9108280254777V4.0891719745223C128 -3.1125265392781 125.4182590233546 -9.2271762208068 120.3906581740977 -14.3906581740977S109.1125265392781 -22 101.9108280254777 -22H26.0891719745223C18.8874734607219 -22 12.7728237791932 -19.4182590233546 7.6093418259023 -14.3906581740977S0 -3.1125265392781 0 4.0891719745223V79.9108280254777C0 87.1125265392781 2.5817409766454 93.2271762208068 7.6093418259023 98.3906581740977S18.8874734607219 106 26.0891719745223 106H101.9108280254777C109.1125265392781 106 115.2271762208068 103.4182590233546 120.3906581740977 98.3906581740977S128 87.1125265392781 128 79.9108280254777zM101.9108280254777 94.5859872611465H26.0891719745223C22.2845010615711 94.5859872611465 18.8874734607219 93.0912951167728 15.8980891719745 90.1019108280255S11.4140127388535 83.7154989384289 11.4140127388535 79.9108280254777V4.0891719745223C11.4140127388535 0.2845010615711 12.9087048832272 -3.1125265392781 15.8980891719745 -6.1019108280255C18.6157112526539 -8.8195329087049 22.0127388535032 -10.1783439490446 26.0891719745223 -10.1783439490446H101.9108280254777C105.9872611464968 -10.1783439490446 109.3842887473461 -8.8195329087049 112.1019108280255 -6.1019108280255C115.0912951167729 -3.1125265392781 116.5859872611465 0.2845010615711 116.5859872611465 4.0891719745223V79.9108280254777C116.5859872611465 83.7154989384289 115.0912951167729 87.1125265392781 112.1019108280255 90.1019108280255S105.7154989384289 94.5859872611465 101.9108280254777 94.5859872611465z" />
    <glyph glyph-name="square-radius"
      unicode="&#xF136;"
      horiz-adv-x="128" d=" M128 82.0701071080818V2.0545277507303C128 -4.5511197663096 125.6319376825706 -10.159688412853 121.0204479065239 -14.8958130477118S110.6757546251217 -21.8753651411879 104.0701071080818 -21.8753651411879H23.9298928919182C17.3242453748783 -21.8753651411879 11.715676728335 -19.5073028237585 6.9795520934761 -14.8958130477118S0 -4.6757546251217 0 2.0545277507303V82.0701071080818C0 88.6757546251217 2.3680623174294 94.2843232716651 6.9795520934761 99.0204479065239S17.3242453748783 106 23.9298928919182 106H103.9454722492697C110.6757546251217 106 116.2843232716651 103.6319376825706 120.8958130477118 99.0204479065239S128 88.6757546251217 128 82.0701071080818z" />
    <glyph glyph-name="square"
      unicode="&#xF137;"
      horiz-adv-x="128" d=" M128 92.3490304709141V-7.8171745152355C128 -17.213296398892 122.6814404432133 -22 112.2216066481995 -22H16.1329639889197C5.3185595567867 -22 0 -17.213296398892 0 -7.8171745152355V92.3490304709141C0 97.6675900277008 1.4182825484765 101.0360110803324 4.0775623268698 102.808864265928C6.9141274238227 104.9362880886427 10.9916897506925 106 16.1329639889197 106H112.0443213296399C122.6814404432133 106 128 101.3905817174515 128 92.3490304709141z" />
    <glyph glyph-name="star-fill"
      unicode="&#xF138;"
      horiz-adv-x="128" d=" M93.5 30.7L126 53.8C129.7 56.4 127.8 62.2 123.3 62.2H83.6C81.6 62.2 79.8 63.5 79.2 65.4L67.7 100.2C66.3 104.5 60.2 104.4 58.9 100.1L48.3 65.4C47.7 63.5 45.9 62.1 43.9 62.1H4.6C0.1 62.1 -1.7 56.3 1.9 53.7L34.3 30.7C35.9 29.5 36.6 27.5 36 25.6L24.1 -13.5C22.8 -17.8 27.8 -21.3 31.3 -18.5L61 4.4C62.7 5.7 65 5.7 66.6 4.4L96.3 -18.5C99.9 -21.2 104.8 -17.8 103.5 -13.5L91.6 25.5C91.2 27.5 91.9 29.5 93.5 30.7z" />
    <glyph glyph-name="star-ol"
      unicode="&#xF139;"
      horiz-adv-x="128" d=" M127.6 58.8C126.5 62.3 123.3 64.6 119.7 64.6H82.3L71.3 97.8C70.2 101.2 67 103.5 63.4 103.5C59.7 103.5 56.5 101.1 55.4 97.6L45.3 64.6H8.3C4.7 64.6 1.5 62.3 0.4 58.8C-0.7 55.3 0.5 51.6 3.5 49.5L34 27.9L22.8 -8.8C22 -11.3 22.5 -14 24 -16.2C25.6 -18.3 28.1 -19.6 30.7 -19.6L35.8 -17.9L63.9 3.8L92 -17.8C92 -17.8 97.1 -19.5 97.1 -19.5C99.7 -19.5 102.2 -18.2 103.8 -16.1C105.4 -14 105.8 -11.3 105 -8.7L93.8 27.8L124.5 49.5C127.5 51.6 128.7 55.4 127.6 58.8zM120.7 54.9L87.2 31.1C86.6 30.7 86.3 29.9 86.5 29.2L98.7 -10.8C99.2 -12.4 97.3 -13.7 96 -12.7L65 11.3C64.4 11.8 63.5 11.8 62.9 11.3L31.9 -12.6C30.6 -13.6 28.7 -12.3 29.2 -10.7L41.4 29.3C41.6 30 41.4 30.8 40.7 31.2L7.3 54.9C5.9 55.9 6.6 58 8.3 58H48.8C49.6 58 50.2 58.5 50.5 59.2L61.7 95.7C62.2 97.3 64.5 97.3 65 95.7L77.1 59.1C77.3 58.4 78 57.9 78.7 57.9H119.6C121.4 58 122.1 55.9 120.7 54.9z" />
    <glyph glyph-name="star-round"
      unicode="&#xF13A;"
      horiz-adv-x="128" d=" M57.1 99L41.5 67.3L6.5 62.2C2.3 61.6 -0.6 57.7 0 53.5C0.2 51.8 1 50.3 2.2 49.1L27.5 24.5L21.5 -10.3C20.8 -14.5 23.6 -18.4 27.8 -19.1C29.5 -19.4 31.2 -19.1 32.6 -18.3L64 -1.9L95.3 -18.3C99.1 -20.3 103.7 -18.8 105.6 -15.1C106.4 -13.6 106.6 -11.9 106.4 -10.3L100.4 24.5L125.7 49.1C128.7 52.1 128.8 56.9 125.8 59.9C124.6 61.1 123.1 61.9 121.4 62.1L86.4 67.2L70.9 99C69 102.8 64.4 104.3 60.6 102.5C59.1 101.7 57.9 100.5 57.1 99z" />
    <glyph glyph-name="submission"
      unicode="&#xF13B;"
      horiz-adv-x="128" d=" M65 41C72.1 41 77.9 46.8 77.9 53.9S72.1 66.8 65 66.8S52.1 61 52.1 53.9S57.8 41 65 41zM65 60.1C68.4 60.1 71.2 57.3 71.2 53.9S68.4 47.7 65 47.7S58.8 50.5 58.8 53.9S61.5 60.1 65 60.1z M72.1 39.4H57.8C49.3 39.4 42.5 32.5 42.5 24.1V19.4C42.5 17.6 44 16.1 45.8 16.1C47.6 16.1 49.1 17.6 49.1 19.4V24C49.1 28.8 53 32.6 57.7 32.6H71.9C76.7 32.6 80.5 28.7 80.5 24V19.3C80.5 17.5 82 16 83.8 16C85.6 16 87.1 17.5 87.1 19.3V24C87.4 32.5 80.5 39.4 72.1 39.4z M119.4 81.2H8.6C4.4 81.2 1 77.8 1 73.5V10.5C1 6.3 4.4 2.8 8.6 2.8H119.4C123.6 2.8 127.1 6.2 127.1 10.5V73.5C127 77.7 123.6 81.2 119.4 81.2zM120.3 73.5V64H107.9V74.5H119.3C119.9 74.5 120.3 74 120.3 73.5zM22 44.9H7.7V56.3H22V44.9zM22 38.2V26.7H7.7V38.2H22zM28.7 74.5H101.3V9.6H28.7V74.5zM107.9 39.1H120.3V27.6H107.9V39.1zM107.9 45.8V57.3H120.3V45.8H107.9zM8.6 74.5H22V63H7.7V73.5C7.7 74 8.1 74.5 8.6 74.5zM7.7 10.5V20H22V9.5H8.6C8.1 9.5 7.7 10 7.7 10.5zM119.4 9.5H108V21H120.4V10.5C120.3 10 119.9 9.5 119.4 9.5z" />
    <glyph glyph-name="sun"
      unicode="&#xF13C;"
      horiz-adv-x="128" d=" M19.2 42C19.2 38.6933333333333 17.0666666666667 36.9866666666667 12.6933333333333 36.9866666666667H6.5066666666667C2.1333333333333 36.9866666666667 0 38.6933333333333 0 42C0 43.28 0.64 44.4533333333333 2.0266666666667 45.52S4.9066666666667 47.0133333333333 6.5066666666667 47.0133333333333H12.8C14.6133333333333 47.0133333333333 16.1066666666667 46.48 17.28 45.52C18.56 44.4533333333333 19.2 43.28 19.2 42zM21.5466666666667 6.48C22.8266666666667 7.76 24.32 8.6133333333333 25.8133333333333 8.72S28.5866666666667 8.5066666666667 29.5466666666667 7.44C30.72 6.2666666666667 31.1466666666667 4.9866666666667 30.8266666666667 3.3866666666667C30.6133333333333 2 29.8666666666667 0.6133333333333 28.8 -0.7733333333333L24 -5.2533333333333C22.72 -6.5333333333333 21.2266666666667 -7.3866666666667 19.7333333333333 -7.4933333333333C18.0266666666667 -7.4933333333333 16.8533333333333 -7.0666666666667 16.2133333333333 -6.2133333333333C13.3333333333333 -3.76 13.6533333333333 -0.9866666666667 16.96 2L21.5466666666667 6.48zM24 89.04L28.8 84.4533333333333C31.7866666666667 81.4666666666667 32 78.8 29.5466666666667 76.24C28.3733333333333 75.3866666666667 27.0933333333333 75.0666666666667 25.7066666666667 75.28C24.2133333333333 75.3866666666667 22.8266666666667 76.1333333333333 21.5466666666667 77.2L16.96 81.7866666666667C15.7866666666667 82.7466666666667 15.04 84.24 14.72 86.0533333333333C14.72 87.76 15.2533333333333 88.9333333333333 16.2133333333333 89.7866666666667C16.96 90.7466666666667 18.1333333333333 91.28 19.7333333333333 91.28C21.2266666666667 91.0666666666667 22.6133333333333 90.32 24 89.04zM64 76.9866666666667C73.8133333333333 76.9866666666667 82.1333333333333 73.5733333333333 88.96 66.7466666666667S99.2 51.7066666666667 99.2 42C99.2 32.1866666666667 95.7866666666667 23.8666666666667 88.96 17.04S73.8133333333333 6.8 64 6.8S45.8666666666667 10.2133333333333 39.2533333333333 17.04C32.4266666666667 23.6533333333333 29.0133333333333 31.9733333333333 29.0133333333333 42C29.0133333333333 51.8133333333333 32.4266666666667 60.1333333333333 39.2533333333333 66.7466666666667C45.8666666666667 73.5733333333333 54.1866666666667 76.9866666666667 64 76.9866666666667zM64 16.5066666666667C71.1466666666667 16.5066666666667 77.12 18.96 82.0266666666667 23.76C87.04 28.7733333333333 89.4933333333333 34.8533333333333 89.4933333333333 42C89.4933333333333 49.04 87.04 55.0133333333333 82.0266666666667 60.0266666666667S71.04 67.4933333333333 64 67.4933333333333S50.9866666666667 65.04 45.9733333333333 60.0266666666667S38.5066666666667 49.04 38.5066666666667 42C38.5066666666667 34.8533333333333 40.96 28.7733333333333 45.9733333333333 23.76C50.88 18.96 56.8533333333333 16.5066666666667 64 16.5066666666667zM64 86.8C62.72 86.8 61.5466666666667 87.44 60.48 88.8266666666667C59.52 89.8933333333333 58.9866666666667 91.3866666666667 58.9866666666667 93.2V99.4933333333333C58.9866666666667 101.2 59.52 102.6933333333333 60.48 103.9733333333333S62.72 106 64 106S66.4533333333333 105.36 67.52 103.9733333333333S69.0133333333333 101.0933333333333 69.0133333333333 99.4933333333333V93.2C69.0133333333333 91.3866666666667 68.48 89.8933333333333 67.52 88.72C66.4533333333333 87.44 65.28 86.8 64 86.8zM64 -2.8C65.28 -2.8 66.4533333333333 -3.44 67.52 -4.8266666666667C68.48 -6 69.0133333333333 -7.4933333333333 69.0133333333333 -9.3066666666666V-15.6C69.0133333333333 -17.3066666666666 68.48 -18.8 67.52 -20.08S65.28 -22 64 -22S61.5466666666667 -21.36 60.48 -19.9733333333333S58.9866666666667 -17.0933333333333 58.9866666666667 -15.4933333333333V-9.2C58.9866666666667 -7.3866666666667 59.52 -5.8933333333333 60.48 -4.72C61.5466666666667 -3.44 62.72 -2.8 64 -2.8zM111.04 81.7866666666667L106.7733333333333 77.3066666666667C103.5733333333333 74.4266666666667 100.9066666666667 74.1066666666667 98.56 76.3466666666667C96.2133333333333 78.8 96.5333333333333 81.4666666666667 99.52 84.4533333333333L104 88.9333333333333C106.9866666666667 91.92 109.76 92.1333333333333 112.2133333333333 89.68C114.56 87.44 114.1333333333333 84.7733333333333 111.04 81.7866666666667zM98.4533333333333 7.5466666666667C100.9066666666667 9.8933333333333 103.68 9.5733333333333 106.6666666666667 6.5866666666667L110.9333333333333 2.1066666666667C114.1333333333334 -0.7733333333333 114.56 -3.44 112.2133333333333 -6.1066666666667C109.76 -8.4533333333333 106.9866666666667 -8.1333333333333 104 -5.1466666666667L99.52 -0.6666666666667C96.5333333333333 2.2133333333333 96.2133333333333 4.9866666666667 98.4533333333333 7.5466666666667zM121.4933333333334 47.0133333333333C123.2 47.0133333333333 124.6933333333334 46.48 125.9733333333333 45.52S128 43.28 128 42C128 38.6933333333333 125.8666666666667 36.9866666666667 121.4933333333334 36.9866666666667H115.52C111.1466666666667 36.9866666666667 109.0133333333333 38.6933333333333 109.0133333333333 42C109.0133333333333 43.28 109.6533333333333 44.4533333333333 111.04 45.52S113.92 47.0133333333333 115.52 47.0133333333333H121.4933333333334z" />
    </font>
</defs>
</svg>
